Tango Emocion [2005, Аргентинское Танго, DVD5]


 

[Цитировать]

Tango Emocion
Год выпуска: 2005
Продолжительность: 01:24:16
Тематика: Аргентинское Танго
Комментарий: Не требуется
Описание: Tango Emocion с программой танцевально-музыкального аргентинского танго.
Звездой этого шоу является величайшая танцовщица и хореограф Мора Годой (Mora Godoy)
Качество: DVD5
Формат: DVD Video
Видео кодек: MPEG2
Аудио кодек: AC3
Видео: NTSC 4:3 (720x480), 5646 Kbps, 29.970 fps
Аудио: Dolby AC3, 2 ch, 192 Kbps, 48.0 KHz

Отчет MediaInfo

General
Complete name : F:\TANGO EMOCION\VTS_01_1.VOB
Format : MPEG-PS
File size : 1 024 MiB
Duration : 24mn 1s
Overall bit rate : 5 956 Kbps
Video
ID : 224 (0xE0)
Format : MPEG Video
Format version : Version 2
Format profile : Main@Main
Format settings, BVOP : Yes
Format settings, Matrix : Default
Duration : 24mn 1s
Bit rate mode : Variable
Bit rate : 5 646 Kbps
Width : 720 pixels
Height : 480 pixels
Display aspect ratio : 4:3
Frame rate : 29.970 fps
Standard : NTSC
Color space : YUV
Chroma subsampling : 4:2:0
Bit depth : 8 bits
Compression mode : Lossy
Bits/(Pixel*Frame) : 0.545
Stream size : 970 MiB (95%)
Audio
ID : 128 (0x80)
Format : AC-3
Format/Info : Audio Coding 3
Mode extension : CM (complete main)
Duration : 24mn 1s
Bit rate mode : Constant
Bit rate : 192 Kbps
Channel(s) : 2 channels
Channel positions : Front: L R
Sampling rate : 48.0 KHz
Bit depth : 16 bits
Compression mode : Lossy
Stream size : 33.0 MiB (3%)

Скриншоты меню


Скриншоты


Скринлисты




Показать сообщения:    

Текущее время: 04-Дек 00:47

Часовой пояс: UTC + 3


Вы не можете начинать темы
Вы не можете отвечать на сообщения
Вы не можете редактировать свои сообщения
Вы не можете удалять свои сообщения
Вы не можете голосовать в опросах
Вы не можете прикреплять файлы к сообщениям
Вы не можете скачивать файлы