"Россия Вечная" театр танца "Гжель" Владимира Захарова [2005 г., Народные танцы, DVDRip]


 

[Цитировать]

"Россия Вечная" театр танца "Гжель" Владимира Захарова
Год выпуска: 2005
Жанр: Народные танцы
Продолжительность: 00:49:37
Описание: Гимном великой и прекрасной Родине, талантливому русскому
человеку-труженику стала программа "Россия вечная" Московского
государственного академического театра танца "Гжель". Впервые
в истории хореографического искусства балетная труппа сумела
воплотить в танце фантастическую красоту русских народных промыслов
- гжели, палехской росписи, хохломы, дымковской игрушки, финифти.
Качество: DVDRip
Формат: AVI
Видео кодек: XviD
Аудио кодек: MPEG Audio
Видео: 704x576 (1.22:1), 23.976 fps, XviD build 47 ~1352 kbps avg, 0.14 bit/pixel
Аудио: 44.100 kHz, MPEG Layer 3, 2 ch, ~192.00 kbps avg

Отчет MediaInfo

General
Complete name : G:\Ансамбль 'Гжель' Россия вечная.avi
Format : AVI
Format/Info : Audio Video Interleave
File size : 551 MiB
Duration : 49mn 37s
Overall bit rate : 1 553 Kbps
Video
ID : 0
Format : MPEG-4 Visual
Format settings, BVOP : No
Format settings, QPel : No
Format settings, GMC : No warppoints
Format settings, Matrix : Default (H.263)
Codec ID : XVID
Codec ID/Hint : XviD
Duration : 49mn 37s
Bit rate : 1 352 Kbps
Width : 704 pixels
Height : 576 pixels
Display aspect ratio : 1.222
Frame rate : 23.976 fps
Standard : PAL
Color space : YUV
Chroma subsampling : 4:2:0
Bit depth : 8 bits
Scan type : Progressive
Bits/(Pixel*Frame) : 0.139
Stream size : 480 MiB (87%)
Writing library : XviD 1.2.0.dev47 (UTC 2006-11-01)
Audio
ID : 1
Format : MPEG Audio
Format version : Version 1
Format profile : Layer 3
Codec ID : 55
Codec ID/Hint : MP3
Duration : 49mn 37s
Bit rate mode : Constant
Bit rate : 192 Kbps
Channel(s) : 2 channels
Sampling rate : 44.1 KHz
Video delay : 26ms
Stream size : 68.2 MiB (12%)
Alignment : Split accross interleaves
Interleave, duration : 42 ms (1.00 video frame)
Title : Audio Stream

Скриншоты


Скринлисты




Показать сообщения:    

Текущее время: 04-Дек 17:18

Часовой пояс: UTC + 3


Вы не можете начинать темы
Вы не можете отвечать на сообщения
Вы не можете редактировать свои сообщения
Вы не можете удалять свои сообщения
Вы не можете голосовать в опросах
Вы не можете прикреплять файлы к сообщениям
Вы не можете скачивать файлы