Сказочная "Гжель" Владимира Захарова / Русского танца душа. [2005 г., Народные танцы, DVDRip]


 

[Цитировать]

Сказочная "Гжель" Владимира Захарова / Русского танца душа.
Год выпуска: 2005
Жанр: Народные танцы
Участники: Академический театр танца «Гжель»
Продолжительность: 00:50:20
Описание: Русские танцы... Тот, кто видел их хоть раз, не сможет забыть их волнующей, зажигательной красоты. Чем же покоряют эти танцы людские сердца? Безудержной удалью добрых молодцев-плясунов или плавной поступью русских красавиц? Задорными плясками или задумчивыми хороводами? А может быть тем, что именно в них, в этих танцах, видим мы и чувствуем душу русского народа, нашей России - веселую и открытую, сильную и добрую - прекрасную душу великой нашей Родины.
Качество: DVDRip
Формат: AVI
Видео кодек: XviD
Аудио кодек: MPEG Audio
Видео: 720x576 (1.25:1), 23.976 fps, XviD build 47 ~2924 kbps avg, 0.29 bit/pixel
Аудио: 44.100 kHz, MPEG Layer 3, 2 ch, ~192.00 kbps avg

Отчет MediaInfo

General
Complete name : G:\Ансамбль 'Гжель' Русского танца душа.avi
Format : AVI
Format/Info : Audio Video Interleave
File size : 1.10 GiB
Duration : 50mn 20s
Overall bit rate : 3 126 Kbps
Video
ID : 0
Format : MPEG-4 Visual
Format settings, BVOP : No
Format settings, QPel : No
Format settings, GMC : No warppoints
Format settings, Matrix : Default (H.263)
Codec ID : XVID
Codec ID/Hint : XviD
Duration : 50mn 20s
Bit rate : 2 925 Kbps
Width : 720 pixels
Height : 576 pixels
Display aspect ratio : 5:4
Frame rate : 23.976 fps
Standard : PAL
Color space : YUV
Chroma subsampling : 4:2:0
Bit depth : 8 bits
Scan type : Progressive
Bits/(Pixel*Frame) : 0.294
Stream size : 1.03 GiB (94%)
Writing library : XviD 1.2.0.dev47 (UTC 2006-11-01)
Audio
ID : 1
Format : MPEG Audio
Format version : Version 1
Format profile : Layer 3
Codec ID : 55
Codec ID/Hint : MP3
Duration : 50mn 20s
Bit rate mode : Constant
Bit rate : 192 Kbps
Channel(s) : 2 channels
Sampling rate : 44.1 KHz
Video delay : 26ms
Stream size : 69.1 MiB (6%)
Alignment : Split accross interleaves
Interleave, duration : 42 ms (1.00 video frame)
Title : Audio Stream

Скриншоты


Скринлисты




Показать сообщения:    

Текущее время: 06-Дек 17:11

Часовой пояс: UTC + 3


Вы не можете начинать темы
Вы не можете отвечать на сообщения
Вы не можете редактировать свои сообщения
Вы не можете удалять свои сообщения
Вы не можете голосовать в опросах
Вы не можете прикреплять файлы к сообщениям
Вы не можете скачивать файлы