Волшебная лампа [2005 г., Танец живота, DVDRip]


 

[Цитировать]

Волшебная лампа
Год выпуска: 2005
Страна: Россия
Жанр: Танец живота
Продолжительность: 01:41:18
Описание: Концерт Лиги профессионалов восточного танца. Включает как сольные классические номера Raks Sharki, так и фольклорные танцы. Будет интересен всем интересующимся восточным танцем. Участвуют звезды восточного танца: Елена Рамазанова, Айда Хасан, Вилена, Ирина Попова, Самира, Ирина Белопольская и другие.
Качество: DVDRip
Формат: AVI
Видео кодек: DivX 5
Аудио кодек: MPEG Audio
Видео: 480x368, 4:3, 1736 Kbps, 25.000 fps
Аудио: 185 Kbps, Joint stereo, 2 channels, 48.0 KHz

Отчет MediaInfo

General
Complete name : G:\Volshebnaja_lampa.avi
Format : AVI
Format/Info : Audio Video Interleave
File size : 1.37 GiB
Duration : 1h 41mn
Overall bit rate : 1 933 Kbps
Writing application : VirtualDubMod 1.5.4.1 (build 2178/release)
Writing library : VirtualDubMod build 2178/release
Video
ID : 0
Format : MPEG-4 Visual
Format settings, BVOP : Yes
Format settings, QPel : No
Format settings, GMC : No warppoints
Format settings, Matrix : Default (H.263)
Muxing mode : Packed bitstream
Codec ID : DX50
Codec ID/Hint : DivX 5
Duration : 1h 41mn
Bit rate : 1 736 Kbps
Width : 480 pixels
Height : 368 pixels
Display aspect ratio : 4:3
Frame rate : 25.000 fps
Color space : YUV
Chroma subsampling : 4:2:0
Bit depth : 8 bits
Scan type : Progressive
Bits/(Pixel*Frame) : 0.393
Stream size : 1.23 GiB (90%)
Writing library : DivX 5.2.1 (WaffleDay) (UTC 2004-09-08)
Audio
ID : 1
Format : MPEG Audio
Format version : Version 1
Format profile : Layer 3
Mode : Joint stereo
Mode extension : MS Stereo
Codec ID : 55
Codec ID/Hint : MP3
Duration : 1h 41mn
Bit rate mode : Variable
Bit rate : 185 Kbps
Channel(s) : 2 channels
Sampling rate : 48.0 KHz
Stream size : 134 MiB (10%)
Alignment : Aligned on interleaves
Interleave, duration : 24 ms (0.60 video frame)
Interleave, preload duration : 478 ms

Скриншоты

Скринлисты




Показать сообщения:    

Текущее время: 09-Дек 03:05

Часовой пояс: UTC + 3


Вы не можете начинать темы
Вы не можете отвечать на сообщения
Вы не можете редактировать свои сообщения
Вы не можете удалять свои сообщения
Вы не можете голосовать в опросах
Вы не можете прикреплять файлы к сообщениям
Вы не можете скачивать файлы