3-я Всемирная Танцевальная Конвенция ОРТО. Чемпионат мира 2006 г. Финал. [2006 г., Танец живота, DVDRip]


 

[Цитировать]

3-я Всемирная Танцевальная Конвенция ОРТО. Чемпионат мира 2006 г. Финал.
Год выпуска: 2006
Жанр: Танец живота
Продолжительность: 00:44:48
Режиссер: любительское видео
Описание: 1-й международный чемпионат мира по танцам живота в Москве.
Проходил 1 мая 2006 года. финал.
Участники: Евгения Коптева, Алла Кушнир, Нино, Валерия Путицкая, София Саркисян, Марина Зарецкая, Алена Гринчик.
Качество: DVDRip
Формат: Windows Media
Видео кодек: Windows Media Video 8
Аудио кодек: Windows Media Audio
Видео: 384х288, 4:3, 512 Kbps, 25.000 fps
Аудио: 2 channels, 64.0 Kbps, 44.1 KHz

Фото и места

Коптева Евгения - 1 место

Путицкая Валерия - 2 место

Зарецкая Марина - 3 место

Гринчик Алена - 4 место

Нино - 5 место

Саркисян София - 6 место

Кушнир Алла - 7 место

Отчет MediaInfo

General
Complete name : G:\tanez\Kopteva_Evjeniya.wmv
Format : Windows Media
File size : 27.5 MiB
Duration : 6mn 37s
Overall bit rate mode : Constant
Overall bit rate : 580 Kbps
Maximum Overall bit rate : 584 Kbps
Encoded date : UTC 2006-05-02 04:25:03.477
Copyright : beledi.ru
Video
ID : 2
Format : WMV2
Codec ID : WMV2
Codec ID/Info : Windows Media Video 8
Description of the codec : Windows Media Video V8
Duration : 6mn 37s
Bit rate mode : Constant
Bit rate : 512 Kbps
Width : 384 pixels
Height : 288 pixels
Display aspect ratio : 4:3
Frame rate : 25.000 fps
Bit depth : 8 bits
Bits/(Pixel*Frame) : 0.185
Stream size : 24.3 MiB (88%)
Audio
ID : 1
Format : WMA
Format version : Version 2
Codec ID : 161
Codec ID/Info : Windows Media Audio
Description of the codec : Windows Media Audio 9.1 - 64 kbps, 44 kHz, stereo 2-pass CBR
Duration : 6mn 37s
Bit rate mode : Constant
Bit rate : 64.0 Kbps
Channel(s) : 2 channels
Sampling rate : 44.1 KHz
Bit depth : 16 bits
Stream size : 3.03 MiB (11%)

Скриншоты


Скринлисты




Показать сообщения:    

Текущее время: 04-Дек 19:22

Часовой пояс: UTC + 3


Вы не можете начинать темы
Вы не можете отвечать на сообщения
Вы не можете редактировать свои сообщения
Вы не можете удалять свои сообщения
Вы не можете голосовать в опросах
Вы не можете прикреплять файлы к сообщениям
Вы не можете скачивать файлы