(Classical) Walter Saul - Kiev 2014, Violin Concerto, A Christmas Symphony, Metamorphosis, etc. (Теодор Кучар) - 2015, FLAC (image+.cue) lossless


 

[Цитировать]

Walter Saul - Kiev 2014 & Violin Concerto
Жанр: Classical
Страна-производитель диска: Germany
Год издания диска: 2015
Издатель (лейбл): Naxos
Номер по каталогу: 8.559791
Дата записи: 18, 20&21.XII.2014
Аудиокодек: FLAC
Тип рипа: image+.cue
Битрейт аудио: lossless
Продолжительность: 1:19'48"
Источник: собственный рип
Наличие сканов в содержимом раздачи: да
Треклист:
01. Kiev 2014
Violin Concerto
02. I. Lento
03. II. Recitative - Presto
04. Overture for the Jubilee
05. From Life to Greater Life
A Christmas Symphony
06. I. Gabriel
07. II. Star
08. III. Simeon
09. IV. Gloria
10. Metamorphosis
Исполнители:
Rong-Huey Liu, oboe (1)
James Buswell, violin (2-3)
Walter Saul, piano (10)
Національний симфонічний оркестр України
Теодор Кучар-

Лог создания рипа

Exact Audio Copy V1.0 beta 4 from 7. December 2014
EAC extraction logfile from 15. October 2015, 21:02
Walter Saul / Kiev 2014 & Violin Concerto
Used drive : TSSTcorpDVDWBD TS-LB23A Adapter: 1 ID: 0
Read mode : SecureUtilize accurate stream : YesDefeat audio cache : YesMake use of C2 pointers : No
Read offset correction : 6Overread into Lead-In and Lead-Out : NoFill up missing offset samples with silence : YesDelete leading and trailing silent blocks : NoNull samples used in CRC calculations : YesUsed interface : Native Win32 interface for Win NT & 2000
Used output format : User Defined EncoderSelected bitrate : 128 kBit/sQuality : HighAdd ID3 tag : YesCommand line compressor : C:\Program Files (x86)\Exact Audio Copy\Flac\flac.exeAdditional command line options : -T "COMMENT=Ripped by GFox" -V -8 %source%
TOC of the extracted CD
Track | Start | Length | Start sector | End sector --------------------------------------------------------- 1 | 0:00.00 | 7:52.03 | 0 | 35402 2 | 7:52.03 | 8:17.21 | 35403 | 72698 3 | 16:09.24 | 12:35.37 | 72699 | 129360 4 | 28:44.61 | 7:46.54 | 129361 | 164364 5 | 36:31.40 | 9:14.10 | 164365 | 205924 6 | 45:45.50 | 3:35.07 | 205925 | 222056 7 | 49:20.57 | 3:17.25 | 222057 | 236856 8 | 52:38.07 | 5:46.57 | 236857 | 262863 9 | 58:24.64 | 5:08.02 | 262864 | 285965 10 | 63:32.66 | 16:15.09 | 285966 | 359099
Range status and errors
Selected range
Filename D:\Downloads\Walter Saul - Kiev 2014 & Violin Concerto.wav
Peak level 85.5 % Extraction speed 1.8 X Range quality 100.0 % Test CRC A4D85A5C Copy CRC A4D85A5C Copy OK
No errors occurred
AccurateRip summary
Track 1 not present in databaseTrack 2 not present in databaseTrack 3 not present in databaseTrack 4 not present in databaseTrack 5 not present in databaseTrack 6 not present in databaseTrack 7 not present in databaseTrack 8 not present in databaseTrack 9 not present in databaseTrack 10 not present in database
None of the tracks are present in the AccurateRip database
End of status report
==== Log checksum CAB1D3B445E66954915C8D16D7F374CD9F7C4DEC260E8C78C53760839DF713E5 ====
-Доп. информация: Поэт - не только в России "больше, чем поэт". И неважно даже, если он и не поэт вовсе, а, как поётся в одной старой детской песенке, "вдохновенный рифмоплёт": любая кучка фекалий (ничего личного - имён не называем!), наваленная за всё хорошее против всего плохого, в глазах Прогрессивной Общественности сразу превращается в Объектъ Высокага Искусства (прошу прощения за мой архаичный стиль).
Но не будем судить строго, ибо "слаб человек", и даже лучшие из нас поддавались искушению. Вот, например, "старина Людвиг ван" - вот уж был всем либералам либерал! - искренне восторгался идеалами Французской революции и даже посвятил свою Третью "Героическую" симфонию "освободителю Боунапарте" - до тех пор, пока пушки "освободителя" не начали обстреливать предместья его любимой Вены, поставив в довольно опасное положение не только финансовое благополучие, но и саму жизнь Маэстро. Или вот молодой - эх, молодо-зелено! - Шостакович: как отчаянно он ни восторгался в своих ранних симфониях Великим Октябрём и Первым Мая, его недолгий бурный роман с советским строем всё равно закончился сплошным "сумбуром вместо музыки", за который ему ещё долго пришлось каяться и в Пятой, и в Одиннадцатой, и в Двенадцатой симфониях. Казалось бы, опыт и элементарная логика учат не лезть на старые-добрые грабли, или, проще говоря, куда не просят, но нет. Вот и ещё один, на этот раз американский, композитор спешит представить миру свою гражданскую позицию по поводу (цитирую дословно) "вызовов на в Украине на пути из тьмы оккупации к надежде и победе".
А как же сама музыка? Она, в целом, не дурна, хоть и без претензии. В общем (я думаю, вы уже поняли): Вальтер Сол - далеко не Бетховен или Шостакович, и это как раз тот случай, когда повод подменяет собой и форму, и содержание.
-



Показать сообщения:    

Текущее время: 04-Дек 06:56

Часовой пояс: UTC + 3


Вы не можете начинать темы
Вы не можете отвечать на сообщения
Вы не можете редактировать свои сообщения
Вы не можете удалять свои сообщения
Вы не можете голосовать в опросах
Вы не можете прикреплять файлы к сообщениям
Вы не можете скачивать файлы