R.Wagner - Die Meistersinger von Nurnberg / Р.Вагнер - Нюрнбергские Мейстерзингеры (James Levine) [13.12.2014, Opera, HDTVRip]


 

[Цитировать]

R.Wagner Die Meistersinger von Nurnberg - J.Levine / Р.Вагнер - Нюрнбергские Мейстерзингеры - Д.Ливайн
Год выпуска: 13.12.2014
Жанр: Opera
Продолжительность: 05:13:18
Язык: Немецкий
Субтитры: Русские
Режиссер: Отто Шенк
Дирижер: Джеймс Ливайн
Исполнители:
Ева - Аннет Даш
Магдалена - Карен Кэгил
Вальтер фон Штольцинг - Йохан Бота
Давид - Пол Эпплби
Ганс Сакс - Михаэль Фолле
Бекмессер - Йоханнес Мартин Крэнцле
Погнер - Ханс-Петер Кёниг
Ночной сторож - Мэтью Роуз
Описание: Самая масштабная из трансляций Метрополитен Опера Live in HD наконец-то на нашем трекере в оригинальном качестве!
За дирижерским пультом – Джеймс Ливайн. Михаэль Фолле исполняет роль Ганса Сакса, Йохан Бота – роль Вальтера, Аннет Даш поет красавицу Еву, Карен Кэгил – ее кормилицу Магдалену, Пол Эпплби в роли Давида, а Ханс-Петер Кёниг – отца Евы, Погнера. Йоханнес Мартин Крэнцле дебютировал в Мет в этом спектакле в роли Сикста Бекмессера.
Релиз и субтитры выполнены пользователем svetlanka. Отдельная благодарность от релизера и раздающего Леониду Гуральнику и Ya-san, без участия которых этот релиз вряд ли бы тут появился.
Качество видео: HDTVRip
Формат/Контейнер: MPEG-PS
Видео кодек: MPEG2
Аудио кодек: AC3
Видео поток: 1920*1980i, 25 fps, variable 16 Mbps, 16:9
Аудио поток: AC-3, 48 kHz, 448 Kbps, 6 ch

MediaInfo

Общее
Полное имя: E:\SHARE\MEISTERSINGERS 2014\05_Vagner_Die_Meistersinger_von_Nurnberg_Met_2014.mpg
Формат: MPEG-PS
Размер файла: 38,6 Гбайт
Продолжительность: 5 ч. 13 м.
Режим общего битрейта: Переменный
Общий поток: 17,7 Мбит/сек
Библиотека кодирования : (c) 1998-2005 Womble Multimedia, Inc. / MPEG Video Wizard (09/2005) / Mar 2 2006
Видео
Идентификатор: 224 (0xE0)
Формат: MPEG Video
Версия формата: Version 2
Профиль формата: Main@High
Параметр BVOP формата: Да
Параметр матрицы формата: Выборочная
Параметр GOP формата: M=3, N=15
Структура изображения: Frame
Продолжительность: 5 ч. 13 м.
Вид битрейта: Переменный
Битрей: 16,9 Мбит/сек
Максимальный битрейт : 16,0 Мбит/сек
Ширина: 1920 пикселей
Высота : 1080 пикселей
Соотношение сторон: 16:9
Частота кадров: 25,000 кадров/сек
Цветовое пространство: YUV
Субдискретизация насыщенности: 4:2:0
Битовая глубина: 8 бит
Тип развёртки: Чересстрочная
Порядок развёртки: Верхнее поле первое
Метод сжатия : С потерями
Бит/(Пиксели*Кадры) : 0.325
Временной код первого кадра : 00:00:00:00
Оригинал временного кода : Group of pictures header
GOP, открыто/закрыто : Открыто
GOP, открыто/закрыто на первом кадре: Закрыто
Размер потока : 36,9 Гбайт (95%)
Библиотека кодирования : (c) 1998-2005 Womble Multimedia, Inc. / MPEG Video Wizard (09/2005) / Mar 2 2006
Аудио
Идентификатор: 189 (0xBD)-128 (0x80)
Формат: AC-3
Формат/Информация: Audio Coding 3
Расширение режима: CM (complete main)
Параметр Endianness формата: Big
Режим смешивания: DVD-Video
Продолжительность: 5 ч. 13 м.
Вид битрейта: Постоянный
Битрейт : 448 Кбит/сек
Каналы: 6 каналов
Расположение каналов: Front: L C R, Side: L R, LFE
Частота: 48,0 КГц
Метод сжатия: С потерями
Размер потока: 1004 Мбайт (3%)

Скриншоты






Показать сообщения:    

Текущее время: 08-Дек 17:22

Часовой пояс: UTC + 3


Вы не можете начинать темы
Вы не можете отвечать на сообщения
Вы не можете редактировать свои сообщения
Вы не можете удалять свои сообщения
Вы не можете голосовать в опросах
Вы не можете прикреплять файлы к сообщениям
Вы не можете скачивать файлы