Стеклянное сердце / Herz aus Glas (Вернер Херцог / Werner Herzog) [1976, Германия, драма, HDRip] VO + Sub Rus, Eng + Original Ger


 

[Цитировать]

Стеклянное сердце / Herz aus Glas
Страна: Германия
Жанр: драма
Год выпуска: 1976
Продолжительность: 01:34:03
Перевод: Одноголосый закадровый
Cубтитры: русские, английские
Оригинальная аудиодорожка: немецкий

Режиссер: Вернер Херцог / Werner Herzog
В ролях: Йозеф Бирбихлер, Штефан Гюттлер, Клеменс Шайц, Соня Скиба, Вульф Альбрехт, Томас Бинкли, Янос Фишер, Вильгельм Фридрих, Эдит Грац, Алоис Хрушка
Описание: Крохотная баварская деревенька, живущая главным образом за счет производства необыкновенного рубинового стекла, внезапно лишается единственного специалиста, который знал секрет изготовления диковинки. После тщательных, но, увы, безрезультатных поисков рецепта, общество понимает, что они обречены… Горнила остыли вместе с человеческими сердцами, поддавшимися панике и страху. Нужно вернуть рубиновое стекло. Любой ценой. И тогда с гор спускается лесник, которого просят помочь, поскольку он обладает даром провидения…
Качество видео: HDRip
Формат видео: AVI
Видео: 704x432 (1.63:1), 24 fps, XviD build 73 ~2013 kbps avg, 0.28 bit/pixel
Аудио: 48 kHz, AC3 Dolby Digital, 2/0 (L,R) ch, ~192 kbps - одноголосый
Аудио: 48 kHz, AC3 Dolby Digital, 1 ch, ~192 kbps - оригинал (отдельным файлом)

MediaInfo

Общее
Полное имя : H:\Herz.aus.Glas.1976.hdrip_[1.46].avi
Формат : AVI
Формат/Информация : Audio Video Interleave
Размер файла : 1,46 Гбайт
Продолжительность : 1 ч. 34 м.
Общий поток : 2215 Кбит/сек
Программа кодирования : VirtualDubMod 1.5.10.3 | www.virtualdub-fr.org || (build 2550/release)
Библиотека кодирования : VirtualDubMod build 2550/release
Видео
Идентификатор : 0
Формат : MPEG-4 Visual
Профиль формата : Advanced Simple@L5
Параметр BVOP формата : 1
Параметр QPel формата : Нет
Параметр GMC формата : Без точки перехода
Параметр матрицы формата : Выборочная
Идентификатор кодека : XVID
Идентификатор кодека/Подсказка : XviD
Продолжительность : 1 ч. 34 м.
Битрейт : 2014 Кбит/сек
Ширина : 704 пикселя
Высота : 432 пикселя
Соотношение сторон : 16:10
Частота кадров : 24,000 кадра/сек
Цветовое пространство : YUV
Субдискретизация насыщенности : 4:2:0
Битовая глубина : 8 бит
Тип развёртки : Прогрессивная
Метод сжатия : С потерями
Бит/(Пиксели*Кадры) : 0.276
Размер потока : 1,32 Гбайт (91%)
Библиотека кодирования : XviD 73
Аудио
Идентификатор : 1
Формат : AC-3
Формат/Информация : Audio Coding 3
Расширение режима : CM (complete main)
Параметр Endianness формата : Big
Идентификатор кодека : 2000
Продолжительность : 1 ч. 34 м.
Вид битрейта : Постоянный
Битрейт : 192 Кбит/сек
Каналы : 2 канала
Расположение каналов : Front: L R
Частота : 48,0 КГц
Битовая глубина : 16 бит
Метод сжатия : С потерями
Размер потока : 129 Мбайт (9%)
Выравнивание : Разделение по промежуткам
Продолжительность промежутка : 42 мс. (1,00 видеокадр)
Время предзагрузки промежутка : 500 мс.



Показать сообщения:    

Текущее время: 03-Дек 16:46

Часовой пояс: UTC + 3


Вы не можете начинать темы
Вы не можете отвечать на сообщения
Вы не можете редактировать свои сообщения
Вы не можете удалять свои сообщения
Вы не можете голосовать в опросах
Вы не можете прикреплять файлы к сообщениям
Вы не можете скачивать файлы