(Opera) Giacomo Puccini - Manon Lescaut / Джакомо Пуччини - Манон Леско (Alexander Rahbari; Miriam Gauci, Vincenzo Sardinero, Kaludi Kaludov, Marcel Rosca), 1992 - Studio recording - FLAC (tracks+.cue), lossless


 

[Цитировать]

Giacomo Puccini - Manon Lescaut / Джакомо Пуччини - Манон Леско (Alexander Rahbari; Miriam Gauci, Vincenzo Sardinero, Kaludi Kaludov, Marcel Rosca)
Жанр: Opera
Страна-производитель диска: CША
Год издания диска: 1992
Издатель (лейбл): Naxos
Дата записи: 1992
Аудиокодек: FLAC
Тип рипа: tracks+.cue
Битрейт аудио: lossless
Продолжительность: 125:28
Источник: keeybee
Исполнители:
Manon Lescaut - Miriam Gauci,
Lescaut - Vincenzo Sardinero,
Des Grieux - Kaludi Kaludov,
Geronte - Marcel Rosca,
Edmondo - Donald George,
Un sergente degli arcieri - Henk Lauwers,
Il maestro di ballo - Ludwig Van Gijsegem,
Una voce sola - Lucienne van Deyck,
Lampionaio - Ludwig Van Gijsegem,
L'oste - Henk Lauwers,
Un comandante di Marina - Henk Lauwers.
Alexander Rahbari, Conductor,
BRT Philharmonic Orchestra (Brussels),
BRT Philharmonic Chorus.
Recorded at Concert Hall of the Belgian Radio and Television, Brussels, Belgium, February 10, 1992 - February 21, 1992.

Лог создания рипаЛог создания рипа CD 1

Exact Audio Copy V0.99 prebeta 5 from 4. May 2009
EAC extraction logfile from 16. May 2011, 18:39
Gauci, Kaludov, Sardinero etc. Rahbari; BRT Philharmonic Orchestra / Giacomo Puccini - Manon Lescaut
Used drive : TSSTcorpCDDVDW SH-S223F Adapter: 1 ID: 1
Read mode : SecureUtilize accurate stream : YesDefeat audio cache : YesMake use of C2 pointers : No
Read offset correction : 6Overread into Lead-In and Lead-Out : NoFill up missing offset samples with silence : YesDelete leading and trailing silent blocks : NoNull samples used in CRC calculations : YesUsed interface : Native Win32 interface for Win NT & 2000Gap handling : Appended to previous track
Used output format : User Defined EncoderSelected bitrate : 1024 kBit/sQuality : HighAdd ID3 tag : NoCommand line compressor : C:\Program\FLAC\flac.exeAdditional command line options : V -8 -T "artist=%a" -T "title=%t" -T "album=%g" -T "date=%y" -T "tracknumber=%n" -T "genre=%m" %s
TOC of the extracted CD
Track | Start | Length | Start sector | End sector --------------------------------------------------------- 1 | 0:00.00 | 4:34.45 | 0 | 20594 2 | 4:34.45 | 1:02.12 | 20595 | 25256 3 | 5:36.57 | 1:23.38 | 25257 | 31519 4 | 7:00.20 | 1:56.32 | 31520 | 40251 5 | 8:56.52 | 2:11.45 | 40252 | 50121 6 | 11:08.22 | 4:17.08 | 50122 | 69404 7 | 15:25.30 | 2:35.15 | 69405 | 81044 8 | 18:00.45 | 6:02.10 | 81045 | 108204 9 | 24:02.55 | 2:45.35 | 108205 | 120614 10 | 26:48.15 | 4:03.35 | 120615 | 138874 11 | 30:51.50 | 1:43.07 | 138875 | 146606 12 | 32:34.57 | 4:10.43 | 146607 | 165399 13 | 36:45.25 | 5:17.65 | 165400 | 189239 14 | 42:03.15 | 2:18.62 | 189240 | 199651 15 | 44:22.02 | 3:11.30 | 199652 | 214006 16 | 47:33.32 | 2:02.65 | 214007 | 223221 17 | 49:36.22 | 1:18.60 | 223222 | 229131 18 | 50:55.07 | 9:00.50 | 229132 | 269681 19 | 59:55.57 | 9:15.65 | 269682 | 311371
Track 1
Filename E:\rippat\Giacomo Puccini - Manon Lescaut (Gauci, Kaludov) 1992 FLAC\Disc 1\01 ATTO PRIMO. Ave, sera gentile.wav
Pre-gap length 0:00:02.00
Timing problem 0:00:33
Peak level 56.7 % Copy CRC 6886009F Track not present in AccurateRip database Copy finished
Track 2
Filename E:\rippat\Giacomo Puccini - Manon Lescaut (Gauci, Kaludov) 1992 FLAC\Disc 1\02 L'amorї ... l'amorї!.wav
Peak level 47.1 % Copy CRC 4F385FC7 Track not present in AccurateRip database Copy OK
Track 3
Filename E:\rippat\Giacomo Puccini - Manon Lescaut (Gauci, Kaludov) 1992 FLAC\Disc 1\03 Tra voi, belle, brune e bionde.wav
Peak level 24.0 % Copy CRC DE5D3649 Track not present in AccurateRip database Copy OK
Track 4
Filename E:\rippat\Giacomo Puccini - Manon Lescaut (Gauci, Kaludov) 1992 FLAC\Disc 1\04 Ma bravo!.wav
Peak level 52.9 % Copy CRC D9C6C4B2 Track not present in AccurateRip database Copy OK
Track 5
Filename E:\rippat\Giacomo Puccini - Manon Lescaut (Gauci, Kaludov) 1992 FLAC\Disc 1\05 Descendono, vediam! Viaggiatori eleganti, galanti!.wav
Peak level 78.4 % Copy CRC DF57533A Track not present in AccurateRip database Copy OK
Track 6
Filename E:\rippat\Giacomo Puccini - Manon Lescaut (Gauci, Kaludov) 1992 FLAC\Disc 1\06 Cortese damigella, il priego mio acettate.wav
Peak level 48.2 % Copy CRC EA5F99DA Track not present in AccurateRip database Copy OK
Track 7
Filename E:\rippat\Giacomo Puccini - Manon Lescaut (Gauci, Kaludov) 1992 FLAC\Disc 1\07 Donna non vidi mai simile a questa!.wav
Peak level 44.1 % Copy CRC 934BA163 Track not present in AccurateRip database Copy OK
Track 8
Filename E:\rippat\Giacomo Puccini - Manon Lescaut (Gauci, Kaludov) 1992 FLAC\Disc 1\08 La tua ventura - ci rassicura.wav
Peak level 62.5 % Copy CRC 01BD5376 Track not present in AccurateRip database Copy OK
Track 9
Filename E:\rippat\Giacomo Puccini - Manon Lescaut (Gauci, Kaludov) 1992 FLAC\Disc 1\09 Vecchietto amabile.wav
Peak level 49.2 % Copy CRC 076CF697 Track not present in AccurateRip database Copy OK
Track 10
Filename E:\rippat\Giacomo Puccini - Manon Lescaut (Gauci, Kaludov) 1992 FLAC\Disc 1\10 Vedeteї lo'son 'fedele.wav
Peak level 72.5 % Copy CRC 728B4B3B Track not present in AccurateRip database Copy OK
Track 11
Filename E:\rippat\Giacomo Puccini - Manon Lescaut (Gauci, Kaludov) 1992 FLAC\Disc 1\11 Non c'e piu vinoї E cheї Vuota e la bottleї.wav
Peak level 49.4 % Copy CRC 36E78E84 Track not present in AccurateRip database Copy OK
Track 12
Filename E:\rippat\Giacomo Puccini - Manon Lescaut (Gauci, Kaludov) 1992 FLAC\Disc 1\12 Di sedur la sorellina e il momento.wav
Peak level 36.8 % Copy CRC 51AD207B Track not present in AccurateRip database Copy OK
Track 13
Filename E:\rippat\Giacomo Puccini - Manon Lescaut (Gauci, Kaludov) 1992 FLAC\Disc 1\13 ATTO SECONDO. Dispettosetto questo riccio!.wav
Pre-gap length 0:00:09.37
Peak level 24.1 % Copy CRC 13CA469D Track not present in AccurateRip database Copy OK
Track 14
Filename E:\rippat\Giacomo Puccini - Manon Lescaut (Gauci, Kaludov) 1992 FLAC\Disc 1\14 In quelle trine morbide.wav
Peak level 61.5 % Copy CRC B92A339A Track not present in AccurateRip database Copy OK
Track 15
Filename E:\rippat\Giacomo Puccini - Manon Lescaut (Gauci, Kaludov) 1992 FLAC\Disc 1\15 Poiche tu vuoi saper ....wav
Peak level 54.1 % Copy CRC 922E42A6 Track not present in AccurateRip database Copy OK
Track 16
Filename E:\rippat\Giacomo Puccini - Manon Lescaut (Gauci, Kaludov) 1992 FLAC\Disc 1\16 Che ceffi son costorї Ciarlatani o spezialiї.wav
Peak level 18.9 % Copy CRC 0790A8AC Track not present in AccurateRip database Copy OK
Track 17
Filename E:\rippat\Giacomo Puccini - Manon Lescaut (Gauci, Kaludov) 1992 FLAC\Disc 1\17 Paga costor!.wav
Peak level 21.6 % Copy CRC 864A239F Track not present in AccurateRip database Copy OK
Track 18
Filename E:\rippat\Giacomo Puccini - Manon Lescaut (Gauci, Kaludov) 1992 FLAC\Disc 1\18 Minuetto.wav
Peak level 46.4 % Copy CRC 10F42A6F Track not present in AccurateRip database Copy OK
Track 19
Filename E:\rippat\Giacomo Puccini - Manon Lescaut (Gauci, Kaludov) 1992 FLAC\Disc 1\19 Oh, saro la piu bella!.wav
Peak level 57.1 % Copy CRC FC8A007D Track not present in AccurateRip database Copy OK
None of the tracks are present in the AccurateRip database
No errors occurred
End of status report

Лог создания рипа CD 2

Exact Audio Copy V0.99 prebeta 5 from 4. May 2009
EAC extraction logfile from 16. May 2011, 19:51
Gauci, Kaludov, Sardinero etc. Rahbari; BRT Philharmonic Orchestra / Giacomo Puccini - Manon Lescaut disc 2
Used drive : TSSTcorpCDDVDW SH-S223F Adapter: 1 ID: 1
Read mode : SecureUtilize accurate stream : YesDefeat audio cache : YesMake use of C2 pointers : No
Read offset correction : 6Overread into Lead-In and Lead-Out : NoFill up missing offset samples with silence : YesDelete leading and trailing silent blocks : NoNull samples used in CRC calculations : YesUsed interface : Native Win32 interface for Win NT & 2000Gap handling : Appended to previous track
Used output format : User Defined EncoderSelected bitrate : 1024 kBit/sQuality : HighAdd ID3 tag : NoCommand line compressor : C:\Program\FLAC\flac.exeAdditional command line options : V -8 -T "artist=%a" -T "title=%t" -T "album=%g" -T "date=%y" -T "tracknumber=%n" -T "genre=%m" %s
TOC of the extracted CD
Track | Start | Length | Start sector | End sector --------------------------------------------------------- 1 | 0:00.00 | 2:20.05 | 0 | 10504 2 | 2:20.05 | 3:44.15 | 10505 | 27319 3 | 6:04.20 | 3:25.05 | 27320 | 42699 4 | 9:29.25 | 5:56.00 | 42700 | 69399 5 | 15:25.25 | 5:12.00 | 69400 | 92799 6 | 20:37.25 | 2:52.50 | 92800 | 105749 7 | 23:30.00 | 1:35.27 | 105750 | 112901 8 | 25:05.27 | 4:17.65 | 112902 | 132241 9 | 29:23.17 | 4:01.08 | 132242 | 150324 10 | 33:24.25 | 3:19.50 | 150325 | 165299 11 | 36:44.00 | 2:17.05 | 165300 | 175579 12 | 39:01.05 | 5:11.10 | 175580 | 198914 13 | 44:12.15 | 4:48.27 | 198915 | 220541 14 | 49:00.42 | 7:29.68 | 220542 | 254284
Track 1
Filename E:\rippat\Giacomo Puccini - Manon Lescaut (Gauci, Kaludov) 1992 FLAC\Disc 2\01 ATTO SECONDO. Ah! ... Affe', madamigella.wav
Pre-gap length 0:00:02.00
Peak level 36.2 % Copy CRC 9D9A5556 Track not present in AccurateRip database Copy OK
Track 2
Filename E:\rippat\Giacomo Puccini - Manon Lescaut (Gauci, Kaludov) 1992 FLAC\Disc 2\02 Senti, di qui partiamo.wav
Peak level 41.3 % Copy CRC DD30E436 Track not present in AccurateRip database Copy OK
Track 3
Filename E:\rippat\Giacomo Puccini - Manon Lescaut (Gauci, Kaludov) 1992 FLAC\Disc 2\03 Lescautї! Tu quiї!.wav
Peak level 68.8 % Copy CRC CF8C7026 Track not present in AccurateRip database Copy OK
Track 4
Filename E:\rippat\Giacomo Puccini - Manon Lescaut (Gauci, Kaludov) 1992 FLAC\Disc 2\04 Intermezzo.wav
Pre-gap length 0:00:06.53
Peak level 63.2 % Copy CRC A1A6686A Track not present in AccurateRip database Copy OK
Track 5
Filename E:\rippat\Giacomo Puccini - Manon Lescaut (Gauci, Kaludov) 1992 FLAC\Disc 2\05 ATTO TERSO. Ansia eterna, crude! ....wav
Pre-gap length 0:00:07.09
Peak level 31.6 % Copy CRC 59FC7F79 Track not present in AccurateRip database Copy OK
Track 6
Filename E:\rippat\Giacomo Puccini - Manon Lescaut (Gauci, Kaludov) 1992 FLAC\Disc 2\06 ..e Kate respose al Re;.wav
Peak level 51.9 % Copy CRC 434FC38D Track not present in AccurateRip database Copy OK
Track 7
Filename E:\rippat\Giacomo Puccini - Manon Lescaut (Gauci, Kaludov) 1992 FLAC\Disc 2\07 All'armi! All'armi!.wav
Peak level 75.7 % Copy CRC 264A23C0 Track not present in AccurateRip database Copy OK
Track 8
Filename E:\rippat\Giacomo Puccini - Manon Lescaut (Gauci, Kaludov) 1992 FLAC\Disc 2\08 L'Appello; Rosetta!.wav
Peak level 50.6 % Copy CRC 07B5C748 Track not present in AccurateRip database Copy OK
Track 9
Filename E:\rippat\Giacomo Puccini - Manon Lescaut (Gauci, Kaludov) 1992 FLAC\Disc 2\09 Presto! In fila! Marciate!.wav
Peak level 59.8 % Copy CRC 39FCB224 Track not present in AccurateRip database Copy OK
Track 10
Filename E:\rippat\Giacomo Puccini - Manon Lescaut (Gauci, Kaludov) 1992 FLAC\Disc 2\10 ATTO QUATRO. Tutta su me ti posa.wav
Pre-gap length 0:00:09.26
Peak level 37.1 % Copy CRC DDAE1E67 Track not present in AccurateRip database Copy OK
Track 11
Filename E:\rippat\Giacomo Puccini - Manon Lescaut (Gauci, Kaludov) 1992 FLAC\Disc 2\11 Manon, senti, amor mio.wav
Peak level 73.5 % Copy CRC 98DE4F7A Track not present in AccurateRip database Copy OK
Track 12
Filename E:\rippat\Giacomo Puccini - Manon Lescaut (Gauci, Kaludov) 1992 FLAC\Disc 2\12 Sei tu che piangiї.wav
Peak level 91.0 % Copy CRC 1A59A319 Track not present in AccurateRip database Copy OK
Track 13
Filename E:\rippat\Giacomo Puccini - Manon Lescaut (Gauci, Kaludov) 1992 FLAC\Disc 2\13 Sola, perduta, abbandonata.wav
Peak level 69.1 % Copy CRC B23E8E97 Track not present in AccurateRip database Copy OK
Track 14
Filename E:\rippat\Giacomo Puccini - Manon Lescaut (Gauci, Kaludov) 1992 FLAC\Disc 2\14 Fra le tue braccia, amore.wav
Peak level 52.1 % Copy CRC 0213408E Track not present in AccurateRip database Copy OK
None of the tracks are present in the AccurateRip database
No errors occurred
End of status report

Содержание индексной карты (.CUE)Содержание индексной карты (.CUE) CD 1

REM GENRE OperaREM DATE 1992REM DISCID 1D103713REM COMMENT "ExactAudioCopy v0.99pb5"PERFORMER "Gauci, Kaludov, Sardinero etc. Rahbari; BRT Philharmonic Orchestra"TITLE "Giacomo Puccini - Manon Lescaut"FILE "Disc 2\01 ATTO PRIMO. Ave, sera gentile.wav" WAVE TRACK 01 AUDIO TITLE "ATTO PRIMO. Ave, sera gentile" PERFORMER "Gauci, Kaludov, Sardinero etc. Rahbari; BRT Philharmonic Orchestra" INDEX 01 00:00:00FILE "Disc 2\02 L'amorї ... l'amorї!.wav" WAVE TRACK 02 AUDIO TITLE "L'amorї ... l'amorї!" PERFORMER "Gauci, Kaludov, Sardinero etc. Rahbari; BRT Philharmonic Orchestra" INDEX 01 00:00:00FILE "Disc 2\03 Tra voi, belle, brune e bionde.wav" WAVE TRACK 03 AUDIO TITLE "Tra voi, belle, brune e bionde" PERFORMER "Gauci, Kaludov, Sardinero etc. Rahbari; BRT Philharmonic Orchestra" INDEX 01 00:00:00FILE "Disc 2\04 Ma bravo!.wav" WAVE TRACK 04 AUDIO TITLE "Ma bravo!" PERFORMER "Gauci, Kaludov, Sardinero etc. Rahbari; BRT Philharmonic Orchestra" INDEX 01 00:00:00FILE "Disc 2\05 Descendono, vediam! Viaggiatori eleganti, galanti!.wav" WAVE TRACK 05 AUDIO TITLE "Descendono, vediam! Viaggiatori eleganti, galanti!" PERFORMER "Gauci, Kaludov, Sardinero etc. Rahbari; BRT Philharmonic Orchestra" INDEX 01 00:00:00FILE "Disc 2\06 Cortese damigella, il priego mio acettate.wav" WAVE TRACK 06 AUDIO TITLE "Cortese damigella, il priego mio acettate" PERFORMER "Gauci, Kaludov, Sardinero etc. Rahbari; BRT Philharmonic Orchestra" INDEX 01 00:00:00FILE "Disc 2\07 Donna non vidi mai simile a questa!.wav" WAVE TRACK 07 AUDIO TITLE "Donna non vidi mai simile a questa!" PERFORMER "Gauci, Kaludov, Sardinero etc. Rahbari; BRT Philharmonic Orchestra" INDEX 01 00:00:00FILE "Disc 2\08 La tua ventura - ci rassicura.wav" WAVE TRACK 08 AUDIO TITLE "La tua ventura - ci rassicura" PERFORMER "Gauci, Kaludov, Sardinero etc. Rahbari; BRT Philharmonic Orchestra" INDEX 01 00:00:00FILE "Disc 2\09 Vecchietto amabile.wav" WAVE TRACK 09 AUDIO TITLE "Vecchietto amabile" PERFORMER "Gauci, Kaludov, Sardinero etc. Rahbari; BRT Philharmonic Orchestra" INDEX 01 00:00:00FILE "Disc 2\10 Vedeteї lo'son 'fedele.wav" WAVE TRACK 10 AUDIO TITLE "Vedeteї lo'son 'fedele" PERFORMER "Gauci, Kaludov, Sardinero etc. Rahbari; BRT Philharmonic Orchestra" INDEX 01 00:00:00FILE "Disc 2\11 Non c'e piu vinoї E cheї Vuota e la bottleї.wav" WAVE TRACK 11 AUDIO TITLE "Non c'e piu vinoї E cheї Vuota e la bottleї" PERFORMER "Gauci, Kaludov, Sardinero etc. Rahbari; BRT Philharmonic Orchestra" INDEX 01 00:00:00FILE "Disc 2\12 Di sedur la sorellina e il momento.wav" WAVE TRACK 12 AUDIO TITLE "Di sedur la sorellina e il momento" PERFORMER "Gauci, Kaludov, Sardinero etc. Rahbari; BRT Philharmonic Orchestra" INDEX 01 00:00:00 TRACK 13 AUDIO TITLE "ATTO SECONDO. Dispettosetto questo riccio!" PERFORMER "Gauci, Kaludov, Sardinero etc. Rahbari; BRT Philharmonic Orchestra" INDEX 00 04:01:15FILE "Disc 2\13 ATTO SECONDO. Dispettosetto questo riccio!.wav" WAVE INDEX 01 00:00:00FILE "Disc 2\14 In quelle trine morbide.wav" WAVE TRACK 14 AUDIO TITLE "In quelle trine morbide" PERFORMER "Gauci, Kaludov, Sardinero etc. Rahbari; BRT Philharmonic Orchestra" INDEX 01 00:00:00FILE "Disc 2\15 Poiche tu vuoi saper ....wav" WAVE TRACK 15 AUDIO TITLE "Poiche tu vuoi saper ..." PERFORMER "Gauci, Kaludov, Sardinero etc. Rahbari; BRT Philharmonic Orchestra" INDEX 01 00:00:00FILE "Disc 2\16 Che ceffi son costorї Ciarlatani o spezialiї.wav" WAVE TRACK 16 AUDIO TITLE "Che ceffi son costorї Ciarlatani o spezialiї" PERFORMER "Gauci, Kaludov, Sardinero etc. Rahbari; BRT Philharmonic Orchestra" INDEX 01 00:00:00FILE "Disc 2\17 Paga costor!.wav" WAVE TRACK 17 AUDIO TITLE "Paga costor!" PERFORMER "Gauci, Kaludov, Sardinero etc. Rahbari; BRT Philharmonic Orchestra" INDEX 01 00:00:00FILE "Disc 2\18 Minuetto.wav" WAVE TRACK 18 AUDIO TITLE "Minuetto" PERFORMER "Gauci, Kaludov, Sardinero etc. Rahbari; BRT Philharmonic Orchestra" INDEX 01 00:00:00FILE "Disc 2\19 Oh, saro la piu bella!.wav" WAVE TRACK 19 AUDIO TITLE "Oh, saro la piu bella!" PERFORMER "Gauci, Kaludov, Sardinero etc. Rahbari; BRT Philharmonic Orchestra" INDEX 01 00:00:00

Содержание индексной карты (.CUE) CD 2

REM GENRE ClassicalREM DATE 1992REM DISCID AE0D3E0EREM COMMENT "ExactAudioCopy v0.99pb5"PERFORMER "Gauci, Kaludov, Sardinero etc. Rahbari; BRT Philharmonic Orchestra"TITLE "Giacomo Puccini - Manon Lescaut disc 2"FILE "Disc 2\01 ATTO SECONDO. Ah! ... Affe', madamigella.wav" WAVE TRACK 01 AUDIO TITLE "ATTO SECONDO. Ah! ... Affe', madamigella" PERFORMER "Gauci, Kaludov, Sardinero etc. Rahbari; BRT Philharmonic Orchestra" INDEX 01 00:00:00 TRACK 02 AUDIO TITLE "Senti, di qui partiamo" PERFORMER "Gauci, Kaludov, Sardinero etc. Rahbari; BRT Philharmonic Orchestra" INDEX 00 02:20:04FILE "Disc 2\02 Senti, di qui partiamo.wav" WAVE INDEX 01 00:00:00 TRACK 03 AUDIO TITLE "Lescautї! Tu quiї!" PERFORMER "Gauci, Kaludov, Sardinero etc. Rahbari; BRT Philharmonic Orchestra" INDEX 00 03:44:14FILE "Disc 2\03 Lescautї! Tu quiї!.wav" WAVE INDEX 01 00:00:00 TRACK 04 AUDIO TITLE "Intermezzo" PERFORMER "Gauci, Kaludov, Sardinero etc. Rahbari; BRT Philharmonic Orchestra" INDEX 00 03:18:39FILE "Disc 2\04 Intermezzo.wav" WAVE INDEX 01 00:00:00 TRACK 05 AUDIO TITLE "ATTO TERSO. Ansia eterna, crude! ..." PERFORMER "Gauci, Kaludov, Sardinero etc. Rahbari; BRT Philharmonic Orchestra" INDEX 00 05:48:66FILE "Disc 2\05 ATTO TERSO. Ansia eterna, crude! ....wav" WAVE INDEX 01 00:00:00FILE "Disc 2\06 ..e Kate respose al Re;.wav" WAVE TRACK 06 AUDIO TITLE "..e Kate respose al Re;" PERFORMER "Gauci, Kaludov, Sardinero etc. Rahbari; BRT Philharmonic Orchestra" INDEX 01 00:00:00 TRACK 07 AUDIO TITLE "All'armi! All'armi!" PERFORMER "Gauci, Kaludov, Sardinero etc. Rahbari; BRT Philharmonic Orchestra" INDEX 00 02:52:49FILE "Disc 2\07 All'armi! All'armi!.wav" WAVE INDEX 01 00:00:00FILE "Disc 2\08 L'Appello; Rosetta!.wav" WAVE TRACK 08 AUDIO TITLE "L'Appello; Rosetta!" PERFORMER "Gauci, Kaludov, Sardinero etc. Rahbari; BRT Philharmonic Orchestra" INDEX 01 00:00:00 TRACK 09 AUDIO TITLE "Presto! In fila! Marciate!" PERFORMER "Gauci, Kaludov, Sardinero etc. Rahbari; BRT Philharmonic Orchestra" INDEX 00 04:17:64FILE "Disc 2\09 Presto! In fila! Marciate!.wav" WAVE INDEX 01 00:00:00 TRACK 10 AUDIO TITLE "ATTO QUATRO. Tutta su me ti posa" PERFORMER "Gauci, Kaludov, Sardinero etc. Rahbari; BRT Philharmonic Orchestra" INDEX 00 03:51:64FILE "Disc 2\10 ATTO QUATRO. Tutta su me ti posa.wav" WAVE INDEX 01 00:00:00FILE "Disc 2\11 Manon, senti, amor mio.wav" WAVE TRACK 11 AUDIO TITLE "Manon, senti, amor mio" PERFORMER "Gauci, Kaludov, Sardinero etc. Rahbari; BRT Philharmonic Orchestra" INDEX 01 00:00:00 TRACK 12 AUDIO TITLE "Sei tu che piangiї" PERFORMER "Gauci, Kaludov, Sardinero etc. Rahbari; BRT Philharmonic Orchestra" INDEX 00 02:17:04FILE "Disc 2\12 Sei tu che piangiї.wav" WAVE INDEX 01 00:00:00 TRACK 13 AUDIO TITLE "Sola, perduta, abbandonata" PERFORMER "Gauci, Kaludov, Sardinero etc. Rahbari; BRT Philharmonic Orchestra" INDEX 00 05:11:09FILE "Disc 2\13 Sola, perduta, abbandonata.wav" WAVE INDEX 01 00:00:00FILE "Disc 2\14 Fra le tue braccia, amore.wav" WAVE TRACK 14 AUDIO TITLE "Fra le tue braccia, amore" PERFORMER "Gauci, Kaludov, Sardinero etc. Rahbari; BRT Philharmonic Orchestra" INDEX 01 00:00:00

Треклист

Disc 1:
Act I:
01 Ave, sera gentile
02 L'amor? ... l'amor?!
03 Tra voi, belle, brune e bionde
04 Ma bravo!
05 Descendono, vediam! Viaggiatori eleganti, galanti!
06 Cortese damigella, il priego mio acettate
07 Donna non vidi mai simile a questa!
08 La tua ventura - ci rassicura
09 Vecchietto amabile
10 Vedete? lo'son 'fedele
11 Non c'e piu vinoї E cheї Vuota e la bottleї
12 Di sedur la sorellina e il momento
Act II:
13 Dispettosetto questo riccio!
14 In quelle trine morbide
15 Poiche tu vuoi saper ...
16 Che ceffi son costor? Ciarlatani o speziali?
17 Paga costor!
18 Minuetto
19 Oh, saro la piu bella!
Disc 2:
01 Ah! ... Affe', madamigella
02 Senti, di qui partiamo
03 Lescautї! Tu quiї!
04 Intermezzo
Act III:
05 Ansia eterna, crude! ...
06 ..e Kate respose al Re;
07 All'armi! All'armi!
08 L'Appello; Rosetta!
09 Presto! In fila! Marciate!
10 ATTO QUATRO. Tutta su me ti posa
11 Manon, senti, amor mio
12 Sei tu che piangiї
13 Sola, perduta, abbandonata
14 Fra le tue braccia, amore



Показать сообщения:    

Текущее время: 04-Дек 21:22

Часовой пояс: UTC + 3


Вы не можете начинать темы
Вы не можете отвечать на сообщения
Вы не можете редактировать свои сообщения
Вы не можете удалять свои сообщения
Вы не можете голосовать в опросах
Вы не можете прикреплять файлы к сообщениям
Вы не можете скачивать файлы