Wolfgang Amadeus Mozart (Моцарт) - Klarinettenkonzert A-Dur KV 622 (Kammerorchester des Symphonieorchesters des Bayerischen Rundfunks, Sabine Meyer) [2012, Classical / Orchestral, HDTV 720p] ARTE


 

[Цитировать]

Wolfgang Amadeus Mozart
Konzert für Klarinette und Orchester A-Dur KV 622

Kammerorchester des Symphonieorchesters des Bayerischen Rundfunks
Sabine Meyer

-
Год выпуска: 2012
Лейбл: Bayerischer Rundfunk
Жанр: Classical / Orchestral
Продолжительность: 00:42:48
Режиссер: Michael Beyer
Исполнители:
Sabine Meyer - klarinette
Kammerorchester des Symphonieorchesters des Bayerischen Rundfunks
Radoslaw Szulc - künstlerische leitung
Треклист:
Wolfgang Amadeus Mozart
- Konzert für Klarinette und Orchester A-Dur KV 622
- Symphonie Nr. 12 G-dur KV 110
- Cassation Nr. 1 G-dur KV 63, Andante
Доп. информация:
Prinzregententheater München, 20. Mai 2012
Sabine Meyer spielt das Klarinettekonzert von Mozart arte.tv
Sabine Meyer Official Site
Sabine Meyer from Wikipedia, the free encyclopedia
Качество видео: HDTV 720p
Контейнер: TS
Видео кодек: H.264
Аудио кодек: AC3
Видео поток: Overall bit rate: 11.1 Mbps, 1280*720 (16:9), at 50.000 fps, AVC (High@L4.0) (CABAC / 4 Ref Frames)
Аудио поток: German, 192 Kbps, 48.0 KHz, 2 channels, MPEG Audio (Version 1) (Layer 2)
Аудио 2: French, 192 Kbps, 48.0 KHz, 2 channels, MPEG Audio (Version 1) (Layer 2)
Аудио 3: Multiple languages, 448 Kbps, 48.0 KHz, 16 bits, 6 channels, AC-3
Аудио 4: 192 Kbps, 48.0 KHz, 2 channels, MPEG Audio (Version 1) (Layer 2)
Источник: Digital Satellite > SkyStar HD2 (TechniSat) > raw data to HDD > Cypheros TS-Doctor > Smart Cutter (cut) > ts

MediaInfo

GeneralID : 8900 (0x22C4)Complete name : C:\rutracker.org_HD\arte HD_Mozart, Klarinettenkonzert (Sabine Meyer) 2012.tsFormat : MPEG-TSFile size : 3.31 GiBDuration : 42mn 47sOverall bit rate mode : VariableOverall bit rate : 11.1 Mbps
VideoID : 5111 (0x13F7)Menu ID : 10302 (0x283E)Format : AVCFormat/Info : Advanced Video CodecFormat profile : High@L4.0Format settings, CABAC : YesFormat settings, ReFrames : 4 framesFormat settings, GOP : M=6, N=32Codec ID : 27Duration : 42mn 47sBit rate : 9 496 KbpsWidth : 1 280 pixelsHeight : 720 pixelsDisplay aspect ratio : 16:9Frame rate : 50.000 fpsColor space : YUVChroma subsampling : 4:2:0Bit depth : 8 bitsScan type : ProgressiveBits/(Pixel*Frame) : 0.206Stream size : 2.84 GiB (86%)
Audio #1ID : 5112 (0x13F8)Menu ID : 10302 (0x283E)Format : MPEG AudioFormat version : Version 1Format profile : Layer 2Codec ID : 3Duration : 42mn 47sBit rate mode : ConstantBit rate : 192 KbpsChannel(s) : 2 channelsSampling rate : 48.0 KHzCompression mode : LossyDelay relative to video : -10msStream size : 58.8 MiB (2%)Language : German
Audio #2ID : 5113 (0x13F9)Menu ID : 10302 (0x283E)Format : MPEG AudioFormat version : Version 1Format profile : Layer 2Codec ID : 3Duration : 42mn 47sBit rate mode : ConstantBit rate : 192 KbpsChannel(s) : 2 channelsSampling rate : 48.0 KHzCompression mode : LossyDelay relative to video : -10msStream size : 58.8 MiB (2%)Language : French
Audio #3ID : 5116 (0x13FC)Menu ID : 10302 (0x283E)Format : AC-3Format/Info : Audio Coding 3Mode extension : CM (complete main)Format settings, Endianness : BigCodec ID : 6Duration : 42mn 47sBit rate mode : ConstantBit rate : 448 KbpsChannel(s) : 6 channelsChannel positions : Front: L C R, Side: L R, LFESampling rate : 48.0 KHzBit depth : 16 bitsCompression mode : LossyDelay relative to video : -6msStream size : 137 MiB (4%)Language : Multiple languages
Audio #4ID : 5117 (0x13FD)Menu ID : 10302 (0x283E)Format : MPEG AudioFormat version : Version 1Format profile : Layer 2Codec ID : 3Duration : 42mn 47sBit rate mode : ConstantBit rate : 192 KbpsChannel(s) : 2 channelsSampling rate : 48.0 KHzCompression mode : LossyDelay relative to video : -24msStream size : 58.8 MiB (2%)
... info ...">

Скриншоты ... info ...


Die Klarinettenkonzerte von Mozart gehören zu seinen schönsten Kompositionen, die er zum Teil erst kurz vor seinem Tod vollendete. Bei einem einzigartigen Konzert im Münchner Prinzregententheater bot Sabine Meyer das Werk auf einer Bassettklarinette dar und ließ es so in seiner originalen Klanglichkeit neu aufleben. Das Konzert wurde am 20. Mai 2012 für ARTE aufgezeichnet.
Die Klarinette, das Nachfolgeinstrument des barocken Chalumeau (Schalmei), wurde in der zweiten Hälfte des 18. Jahrhunderts vor allem von den Komponisten der Mannheimer Schule geschätzt. Mozart lernte das Rohrblattinstrument im Jahre 1777 kennen, als er auf seiner Reise nach Paris in Mannheim Station machte. Einige Jahre später erfand ein Wiener Instrumentenbauer namens Lotz das tiefere Geschwisterinstrument der Klarinette, die Bassettklarinette. Der mit Mozart befreundete Klarinettist Anton Stadler verbesserte die technischen Möglichkeiten des Instruments, und Mozart widmete ihm daraufhin zwei seiner schönsten Kompositionen: 1789 das Klarinettenquintett A-Dur KV 581 und 1791, wenige Wochen vor seinem Tod, das berühmte Konzert in A-Dur KV 622.
Solistin der vorliegenden Konzertaufnahme ist Sabine Meyer. Im Gegensatz zu den meisten heutigen Interpreten, die das Werk auf einer normalen Klarinette spielen und dabei die tiefer liegenden Wendungen in die höhere Lage transponieren und somit auf spezifische Klangwirkungen verzichten, spielt Sabine Meyer das Konzert auf einer Bassettklarinette und lässt so das Werk in seiner originalen Klanglichkeit neu aufleben.
~ arte.tv/guide



Показать сообщения:    

Текущее время: 10-Дек 00:22

Часовой пояс: UTC + 3


Вы не можете начинать темы
Вы не можете отвечать на сообщения
Вы не можете редактировать свои сообщения
Вы не можете удалять свои сообщения
Вы не можете голосовать в опросах
Вы не можете прикреплять файлы к сообщениям
Вы не можете скачивать файлы