Игры графини Долинген де Грац / Les jeux de la Comtesse Dolingen de Gratz / The Games of Countess Dolingen of Gratz (Катрин Бине / Catherine Binet) [1981, Франция, Драма, TVRip, AVC] AVO (А.Алексеев) + Sub Eng + Original Fre


Статистика раздачи [Обновить пиров]
Размер:  1.47 GB   |    Зарегистрирован:  1 год 1 месяц   |    Скачан:  4 раза

Полного источника не было: 12 часов

 
   
 
 
 

[Цитировать]

Игры графини Долинген де Грац / Les jeux de la Comtesse Dolingen de Gratz / The Games of Countess Dolingen of Gratz
Страна: Франция
Жанр: Драма
Год выпуска: 1981
Продолжительность: 01:45:43
Перевод: Авторский (одноголосый закадровый) А.Алексеев
Cубтитры: английские
Оригинальная аудиодорожка: французский
Режиссер: Катрин Бине / Catherine Binet
В ролях: Микаэль Лонсдаль / Michael Lonsdale ... Bertrand Haines-Pearson
Кэрол Кейн / Carol Kane ... Louise Haines-Pearson
Катя Ващенко / Katia Wastchenko ... La petite fille
Марина Влади / Marina Vlady ... La mère de la petite fille
Эмманюэль Рива / Emmanuelle Riva ... Une invitée
Роберто Плате / Roberto Plate ... Le voyageur / Le voleur / L'étranger
Марилу Марини / Marilu Marini ... La comtesse Dolingen de Gratz / La bonne
Роберт Стивенс / Robert Stephens ... Le professeur
Маруча Бо / Marucha Bo ... Nena
Антуан Бине / Antoine Binet ... Le frère
Рауль Эскари / Raoul Escari ... Argentin 1
Тоби Шумер / Tobie Schumer ... Argentin 2
Карин Толи / Carine Toly ... La belle dame
Натали Голднадель / Nathalie Goldnadel ... La fille pubère
Франсуа Морен-Провенсаль / François Mouren-Provensal ... L'homme sur la plage
Описание: Картина частично основана на произведениях Уники Цюрн (Unica Zürn) «Мрачная весна» ("Sombre printemps") и первой главе "Дракулы" Брэма Стокера (Bram Stoker) "Дракулы" ("Dracula's Guest"), щедро приправлена оккультизмом и традиционной атрибутикой "вампирских" романов.
Луиза навещает в психиатрической клинике свою старую подругу, которая рассказывает ей, что только что закончила роман о девочке, покончившей жизнь самоубийством. Она начинает читать, и события романа причудливым образом переплетаются с жизнью самой Луизы, переживающей тяжелую депрессию. Реальность в ее сознании меняется местами с фантазией, и уже трудно понять, что именно происходит на самом деле, а что выдумано. Являлся ли вор, умерший в ловушке, устроенной мужем Луизы тем же самым человеком, из-за которого выбросилась из окна девочка, и что произойдет с ней самой, когда закончится книга?..
Дополнительная информация: Релиз:
Автор рипа: pmv
Исходник найден в сети.
Большое Спасибо за:
- русскую дорожку - rulle1
- авторскую одноголосую озвучку - А.Алексеев
IMDb = 6,3/10 from 51 users - http://www.imdb.com/title/tt0080957/
Кинопоиск = 6.667 (8) - http://www.kinopoisk.ru/film/14387/
ПРОСЬБА к СКАЧАВШИМ. НЕ УХОДИТЕ С РАЗДАЧИ, ПОМОГИТЕ ДРУГИМ СКАЧАТЬ!!!
ВНИМАНИЕ!!! РИП ФОРМАТА mkv (кодек H.264) ВОСПРОИЗВОДИТСЯ НЕ НА ВСЕХ БЫТОВЫХ ВИДЕОПЛЕЕРАХ!!!
Сэмпл: http://multi-up.com/1071710
Качество видео: TVRip
Формат видео: MKV
Видео: AVC (H264), 704@768x456 (1.68:1), 25.00 fps, 1 562 Kbps, 0.195 Bits/Pixel
Аудио: AC3, 48 KHz, stereo (2 ch), 192.00 kbps – русский (А.Алексеев)
Аудио 2: AC3, 48 KHz, stereo (2 ch), 192.00 kbps – французский
Формат субтитров: softsub (SRT)

MediaInfo

General
Complete name : D:\torrents\Les jeux de la Comtesse Dolingen de Gratz (1980, rus+fre+eng_sub).mkv
Format : Matroska
File size : 1.47 GiB
Duration : 1h 45mn
Overall bit rate : 1 986 Kbps
Encoded date : UTC 2015-10-16 15:16:07
Writing application : mkvmerge v8.4.0 ('A better way to fly') 64bit
Writing library : libebml v1.3.1 + libmatroska v1.4.2
Video
ID : 1
Format : AVC
Format/Info : Advanced Video Codec
Format profile : High@L4.1
Format settings, CABAC : Yes
Format settings, ReFrames : 16 frames
Muxing mode : Container profile=Unknown@4.1
Codec ID : V_MPEG4/ISO/AVC
Duration : 1h 45mn
Bit rate : 1 562 Kbps
Nominal bit rate : 1 600 Kbps
Width : 704 pixels
Height : 456 pixels
Display aspect ratio : 1.684
Original display aspect ratio : 3:2
Frame rate : 25.000 fps
Resolution : 8 bits
Colorimetry : 4:2:0
Scan type : Progressive
Bits/(Pixel*Frame) : 0.195
Stream size : 1.15 GiB (79%)
Writing library : x264 core 146 r2538 121396c
Encoding settings : cabac=1 / ref=16 / deblock=1:0:0 / analyse=0x3:0x133 / me=umh / subme=10 / psy=1 / psy_rd=1.00:0.00 / mixed_ref=1 / me_range=24 / chroma_me=1 / trellis=2 / 8x8dct=1 / cqm=0 / deadzone=21,11 / fast_pskip=1 / chroma_qp_offset=-2 / threads=30 / lookahead_threads=3 / sliced_threads=0 / nr=0 / decimate=1 / interlaced=0 / bluray_compat=0 / constrained_intra=0 / bframes=8 / b_pyramid=2 / b_adapt=2 / b_bias=0 / direct=3 / weightb=1 / open_gop=0 / weightp=2 / keyint=250 / keyint_min=25 / scenecut=40 / intra_refresh=0 / rc_lookahead=60 / rc=2pass / mbtree=1 / bitrate=1600 / ratetol=1.0 / qcomp=0.60 / qpmin=0 / qpmax=69 / qpstep=4 / cplxblur=20.0 / qblur=0.5 / ip_ratio=1.40 / aq=1:1.00
Audio #1
ID : 2
Format : AC-3
Format/Info : Audio Coding 3
Codec ID : A_AC3
Duration : 1h 45mn
Bit rate mode : Constant
Bit rate : 192 Kbps
Channel(s) : 2 channels
Channel positions : Front: L R
Sampling rate : 48.0 KHz
Video delay : 2ms
Stream size : 145 MiB (10%)
Language : Russian
Audio #2
ID : 3
Format : AC-3
Format/Info : Audio Coding 3
Codec ID : A_AC3
Duration : 1h 45mn
Bit rate mode : Constant
Bit rate : 192 Kbps
Channel(s) : 2 channels
Channel positions : Front: L R
Sampling rate : 48.0 KHz
Video delay : 16ms
Stream size : 145 MiB (10%)
Language : French
Text
ID : 4
Format : UTF-8
Codec ID : S_TEXT/UTF8
Codec ID/Info : UTF-8 Plain Text
Language : English

Скриншот c названием фильма

Скриншоты

В анаморфном виде

768 х 456
[teatrix.ru].t8885.torrent 
Торрент: Зарегистрирован [ 2015-10-18 04:45 ] · B0A4CD32FF3D2E35A60F0F24E25B554DCE08F09D

Скачать .torrent

Скачать

15 KB

Статус: проверено
Скачан: 4 раз
Размер: 1.47 GB
terms.php



Быстрый ответ

Имя:

      
Для отправки сообщений необходимо включить JavaScript
Показать сообщения:    

Текущее время: 04-Дек 06:52

Часовой пояс: UTC + 3


Вы можете начинать темы
Вы можете отвечать на сообщения
Вы не можете редактировать свои сообщения
Вы не можете удалять свои сообщения
Вы не можете голосовать в опросах
Вы не можете прикреплять файлы к сообщениям
Вы можете скачивать файлы