Ростов-на-Дону. Ростовское телевидение - 50 лет / Обыкновенное чудо (Любовь Суркова) [2008, Док. История. Искусство, TVRip]


Статистика раздачи [Обновить пиров]
Размер:  280 MB   |    Зарегистрирован:  1 год 1 месяц   |    Скачан:  0 раз

Полного источника не было: Никогда

 
   
 
 
 

[Цитировать]

Ростов-на-Дону. Ростовское телевидение - 50 лет / Обыкновенное чудо
Дата/Год выпуска: 2008
Страна: Россия
Жанр: Док. История. Искусство
Продолжительность: 00:30:02
Перевод: Не требуется
Русские субтитры: нет
Режиссер: Любовь Суркова
Телеканал: Россия-1 - Дон-ТР
Описание: История телекомпании началась в 1956 году со строительства Ростовского телецентра. Комитет по радиовещанию и телевидению при исполкоме Ростовского областного совета депутатов трудящихся был организован в феврале 1958 года. Он состоял из двух частей — студии телевидения (коллектив творческих работников) и радиотелецентра (коллектив технических работников, осуществляющих подготовку и выдачу телерадиопрограмм в эфир).
Возведение телебашни высотой 195 метров было завершено 29 апреля 1958 года. Пробные телепередачи начались 30 апреля 1958 года. Первые фильмы снимались на черно-белую негативную пленку 16 миллиметров. До этого момента в эфир выдавались только фотографии, рисунки и дикторы в живом эфире. Первый цветной фильм телекомпании был снят в 1969 году.
Государственная телерадиокомпания «Дон-ТР» была учреждена в 1991 году Министерством информации и печати Российской Федерации. Она явилась правопреемником ликвидированного областного телерадиокомитета и унаследовала у него финансирование из федерального бюджета.
Доп. информация: Производство: ГТРК "Дон-ТР".
Качество: TVRip
Формат: AVI
Видео: Video: H264 700x544 25.00fps 1099Kbps
Аудио: Аудио: MPEG Audio Layer 3 48000Hz stereo 192Kbps

MediaInfo

GeneralComplete name : F:\Ростов-на-Дону. Ростовское телевидение - 50 лет [Обыкновенное чудо] (2008).aviFormat : AVIFormat/Info : Audio Video InterleaveFile size : 280 MiBDuration : 30mn 2sOverall bit rate : 1 302 KbpsWriting library : VirtualDub build 28346/release
VideoID : 0Format : AVCFormat/Info : Advanced Video CodecFormat profile : High@L3.1Format settings, CABAC : YesFormat settings, ReFrames : 8 framesFormat settings, GOP : M=4, N=32Codec ID : H264Duration : 30mn 2sBit rate : 1 100 KbpsWidth : 700 pixelsHeight : 544 pixelsDisplay aspect ratio : 1.287Frame rate : 25.000 fpsColor space : YUVChroma subsampling : 4:2:0Bit depth : 8 bitsScan type : ProgressiveBits/(Pixel*Frame) : 0.116Stream size : 236 MiB (84%)Writing library : x264 core 130 r2274bm c832fe9Encoding settings : cabac=1 / ref=8 / deblock=1:-1:-1 / analyse=0x3:0x133 / me=umh / subme=9 / psy=1 / psy_rd=1.00:0.15 / mixed_ref=1 /me_range=16 / chroma_me=1 / trellis=2 / 8x8dct=1 / cqm=0 / deadzone=21,11 / fast_pskip=1 / chroma_qp_offset=-3 / threads=6 / lookahead_threads=1 /sliced_threads=0 / nr=0 / decimate=1 / interlaced=0 / bluray_compat=0 / constrained_intra=0 / bframes=3 / b_pyramid=2 / b_adapt=2 / b_bias=0 / direct=3 /weightb=1 / open_gop=0 / weightp=2 / keyint=250 / keyint_min=25 / scenecut=40 / intra_refresh=0 / rc_lookahead=60 / rc=2pass / mbtree=1 / bitrate=1100 /ratetol=1.0 / qcomp=0.60 / qpmin=0 / qpmax=69 / qpstep=4 / cplxblur=20.0 / qblur=0.5 / ip_ratio=1.40 / aq=1:1.00
AudioID : 1Format : MPEG AudioFormat version : Version 1Format profile : Layer 3Mode : Joint stereoCodec ID : 55Codec ID/Hint : MP3Duration : 30mn 2sBit rate mode : ConstantBit rate : 192 KbpsChannel(s) : 2 channelsSampling rate : 48.0 KHzStream size : 41.3 MiB (15%)Alignment : Split accross interleavesInterleave, duration : 40 ms (1.00 video frame)Interleave, preload duration : 500 ms

Скриншоты

[teatrix.ru].t8887.torrent 
Торрент: Зарегистрирован [ 2015-10-18 08:55 ] · 9D3497B6232AA37B8CFF43CEFC62CE7B3BBC2C38

Скачать .torrent

Скачать

12 KB

Статус: проверено
Скачан: 0 раз
Размер: 280 MB
terms.php



Быстрый ответ

Имя:

      
Для отправки сообщений необходимо включить JavaScript
Показать сообщения:    

Текущее время: 08-Дек 07:07

Часовой пояс: UTC + 3


Вы можете начинать темы
Вы можете отвечать на сообщения
Вы не можете редактировать свои сообщения
Вы не можете удалять свои сообщения
Вы не можете голосовать в опросах
Вы не можете прикреплять файлы к сообщениям
Вы можете скачивать файлы