Кремль. Хранители сокровищницы России (Михаил Роговой, Александр Громов) [2006, Документальный, история, IPTVRip]


Статистика раздачи [Обновить пиров]
Размер:  629 MB   |    Зарегистрирован:  1 год 1 месяц   |    Скачан:  0 раз
Сидов:  4  [  0 KB/s  ]   Подробная статистика пиров
 
   
 
 

[Цитировать]

Кремль. Хранители сокровищницы России
Дата/Год выпуска: 2006
Страна: Россия
Жанр: Документальный, история
Продолжительность: 00:43:47
Перевод: Не требуется
Режиссер: Михаил Роговой, Александр Громов
Телеканал: История
Описание: В Оружейной палате Московского Кремля хранятся сокровища русских великих князей и царей. Самым древним реликвиям уже почти 900 лет. В коллекции музея собраны тысячи уникальных экспонатов: знаменитая шапка Мономаха, яйца работы Фаберже, костяной трон Ивана Грозного, ботфорты Петра I. Одни были изготовлены отечественными мастерами, другие привезены из Европы и Азии в дар нашим государям, третьи взяты в боях в качестве трофеев. Все эти сокровища могли погибнуть или быть разграблены. Однако каждый раз находились те, кто вставал на их защиту. Документальный фильм рассказывает о хранителях Оружейной палаты и тех уникальных ценностях, которые спасли эти люди.
Доп. информация: Авторство релиза - alf62

качество: IPTVRip
формат: AVI
Видео: 704x528 (1.33:1), 25 fps, XviD build 73 ~1808 kbps avg, 0.19 bit/pixel
Аудио: 48 kHz, AC3 Dolby Digital, 2/0 (L,R) ch, ~192.00 kbps avg

MediaInfo

Кремль.Хранители.сокровищницы.России.2015.XviD.IPTVRip.alf62.aviФормат : AVIФормат/Информация : Audio Video InterleaveРазмер файла : 629 МбайтПродолжительность : 43 м.Общий поток : 2010 Кбит/секБиблиотека кодирования : Boilsoft Joiner build 2411/release
ВидеоИдентификатор : 0Формат : MPEG-4 VisualПрофиль формата : Advanced Simple@L5Параметр BVOP формата : 2Параметр QPel формата : НетПараметр GMC формата : Без точки переходаПараметр матрицы формата : Default (MPEG)Идентификатор кодека : XVIDИдентификатор кодека/Подсказка : XviDПродолжительность : 43 м.Битрейт : 1809 Кбит/секШирина : 704 пикселяВысота : 528 пикселейСоотношение сторон : 4:3Частота кадров : 25,000 кадров/секЦветовое пространство : YUVСубдискретизация насыщенности : 4:2:0Битовая глубина : 8 битТип развёртки : ПрогрессивнаяМетод сжатия : С потерямиБит/(Пиксели*Кадры) : 0.195Размер потока : 566 Мбайт (90%)Библиотека кодирования : XviD 73
АудиоИдентификатор : 1Формат : AC-3Формат/Информация : Audio Coding 3Расширение режима : CM (complete main)Параметр Endianness формата : BigИдентификатор кодека : 2000Продолжительность : 43 м.Вид битрейта : ПостоянныйБитрейт : 192 Кбит/секКаналы : 2 каналаРасположение каналов : Front: L RЧастота : 48,0 КГцБитовая глубина : 16 битМетод сжатия : С потерямиРазмер потока : 60,1 Мбайт (10%)Выравнивание : Разделение по промежуткамПродолжительность промежутка : 40 мс. (1,00 видеокадр)Время предзагрузки промежутка : 500 мс.

Скриншоты


[teatrix.ru].t8891.torrent 
Торрент: Зарегистрирован [ 2015-10-18 08:55 ] · EEF656739AAD5127BDE620D9DE3154A4395F9992

Скачать .torrent

Скачать

13 KB

Статус: проверено
Скачан: 0 раз
Размер: 629 MB
terms.php



Быстрый ответ

Имя:

      
Для отправки сообщений необходимо включить JavaScript
Показать сообщения:    

Текущее время: 04-Дек 23:25

Часовой пояс: UTC + 3


Вы можете начинать темы
Вы можете отвечать на сообщения
Вы не можете редактировать свои сообщения
Вы не можете удалять свои сообщения
Вы не можете голосовать в опросах
Вы не можете прикреплять файлы к сообщениям
Вы можете скачивать файлы