Луиза Буржуа. Паук, любовница и мандарин / Louise Bourgeois: The Spider, the Mistress and the Tangerine (Амей Уоллак / Amei Wallach, Марион Каджори / Marion Cajori) [2008, документальный, современное искусство, DVB] DVO (24 ДОК)


Статистика раздачи [Обновить пиров]
Размер:  1.95 GB   |    Зарегистрирован:  1 год 1 месяц   |    Скачан:  0 раз

Полного источника не было: 7 месяцев 24 дня

 
   
 
 
 

[Цитировать]

Луиза Буржуа. Паук, любовница и мандарин
Louise Bourgeois: The Spider, the Mistress and the Tangerine- Дата/Год выпуска: 2008
Страна: США
Жанр: документальный, современное искусство
Продолжительность: 01:40:49
Перевод: Профессиональный (двухголосый закадровый)
Доп. инфо о переводе: 24 ДОК
Русские субтитры: нетРежиссер: Амей Уоллак / Amei Wallach, Марион Каджори / Marion Cajori
Телеканал: 24 ДОК
Описание: Вступительное слово директора Музея современного искусства "Гараж" Антона Белова.
Луиза Буржуа (1911-2010) - американский скульптор, живописец и график французского происхождения. Творчество Луизы Буржуа часто называют энциклопедией современного искусства, так как в нём нашли свое отражение все основные направления искусства двадцатого века — кубизм, футуризм, сюрреализм, конструктивизм и абстракционизм.
Фильм – это результат длительного сотрудничества Уоллак, Кена Кобланда (оператора, режиссер монтажа) и Марион Каджори (сорежиссер, 1950–2006). Задуманный как рассказ о выставке Буржуа на Венецианской биеннале 1993 года, cо временем фильм вырос в масштабный документальный проект. Финальная версия включает архивные кадры и материал, отснятый в нью-йоркской мастерской и доме художницы на протяжении 1990-х и нулевых. Повествование строится вокруг многочисленных интервью Буржуа и ее близких, связанных длинными видеозарисовками ее произведений. На протяжении всего фильма камера внимательно следит за отдельными деталями — ее руками или улыбкой. Благодаря монтажной манере Кобланда история Луизы Буржуа больше напоминает портрет-коллаж, нежели традиционную хронику. Особую интонацию задает саундтрек из произведений Пуччини, Малера, Лори Андерсон и др. (Музей современного искусства "Гараж", 26.09.2015)
Доп. информация: DVB-S
Участник Thessaloniki Documentary Festival 2009.

качество: DVB
формат: MKV
Видео: MPEG Video 2, 720x576@768x576 (4:3), 25 fps, ~2526 kbps avg, 0.244 bit/pixel
Аудио: MPEG Audio 2, 2 ch, 48 kHz, 192.00 kbps

MediaInfo

ОбщееУникальный идентификатор : 224056189167590621305260530244758093621 (0xA88FA7035058A76EAEFC7D6DB2513F35)Полное имя : F:\My Torrents 3\[apreder]Louise_Bourgeois(2008)DVB.mkvФормат : MatroskaВерсия формата : Version 2Размер файла : 1,95 ГбайтПродолжительность : 1 ч. 40 м.Режим общего битрейта : ПеременныйОбщий поток : 2773 Кбит/секДата кодирования : UTC 2015-10-12 18:13:57Программа кодирования : mkvmerge v8.4.0 ('A better way to fly') 64bitБиблиотека кодирования : libebml v1.3.1 + libmatroska v1.4.2Attachements : cover.jpg / cover_small.jpgTITLE : Louise Bourgeois: The Spider, the Mistress and the TangerineIMDB : tt1386654DATE_RELEASED : 2008-06-25LAW_RATING : 16+GENRE : DocumentaryDIRECTOR : Marion Cajori, Amei WallachKEYWORDS :
ВидеоИдентификатор : 1Формат : MPEG VideoВерсия формата : Version 2Профиль формата : Main@MainПараметр BVOP формата : ДаПараметр матрицы формата : ВыборочнаяПараметр GOP формата : VariableFormat_Settings_PictureStructure : FrameИдентификатор кодека : V_MPEG2Идентификатор кодека/Информация : MPEG 1 or 2 VideoПродолжительность : 1 ч. 40 м.Вид битрейта : ПеременныйБитрейт : 2526 Кбит/секШирина : 720 пикселейВысота : 576 пикселейСоотношение сторон : 4:3Режим частоты кадров : ПостоянныйЧастота кадров : 25,000 кадров/секСтандарт вещания : PALЦветовое пространство : YUVСубдискретизация насыщенности : 4:2:0Битовая глубина : 8 битТип развёртки : ЧересстрочнаяПорядок развёртки : Верхнее поле первоеМетод сжатия : С потерямиБит/(Пиксели*Кадры) : 0.244Временной код первого кадра : 00:00:00:00Оригинал временного кода : Group of pictures headerРазмер потока : 1,78 Гбайт (91%)Default : ДаForced : Нет
АудиоИдентификатор : 2Формат : MPEG AudioВерсия формата : Version 1Профиль формата : Layer 2Идентификатор кодека : A_MPEG/L2Идентификатор кодека/Подсказка : MP2Продолжительность : 1 ч. 40 м.Вид битрейта : ПостоянныйБитрейт : 192 Кбит/секКаналы : 2 каналаЧастота : 48,0 КГцМетод сжатия : С потерямиРазмер потока : 138 Мбайт (7%)Язык : RussianDefault : ДаForced : Нет

Скриншоты


Резервные скриншоты


[teatrix.ru].t8892.torrent 
Торрент: Зарегистрирован [ 2015-10-18 08:55 ] · 433492D4DFDC7D26CC520E5BC7A38C7DA133F972

Скачать .torrent

Скачать

20 KB

Статус: проверено
Скачан: 0 раз
Размер: 1.95 GB
terms.php



Быстрый ответ

Имя:

      
Для отправки сообщений необходимо включить JavaScript
Показать сообщения:    

Текущее время: 08-Дек 09:06

Часовой пояс: UTC + 3


Вы можете начинать темы
Вы можете отвечать на сообщения
Вы не можете редактировать свои сообщения
Вы не можете удалять свои сообщения
Вы не можете голосовать в опросах
Вы не можете прикреплять файлы к сообщениям
Вы можете скачивать файлы