Эрмитаж (2 выпускa) (Михаил Трофимов) [2015, Документальный цикл, познавательный, DVB, RU]


Статистика раздачи [Обновить пиров]
Размер:  1.44 GB   |    Зарегистрирован:  1 год 1 месяц   |    Скачан:  0 раз

Полного источника не было: Никогда

Личеров:  1  [  0 KB/s  ]   Подробная статистика пиров
 
   
 
 
 

[Цитировать]

Эрмитаж
Дата/Год выпуска: 2015
Страна: Россия
Жанр: Документальный цикл, познавательный
Продолжительность: 00:25:41
Перевод: Не требуется
Русские субтитры: нет
Оригинальная аудиодорожка: русский
Режиссер: Михаил Трофимов
Телеканал: Культура
Описание:
Продолжение рассказов Михаила Пиотровского о сокровищах Эрмитажа и его истории
12.10.2015 _ добавил выпуск: Культура как хранитель религиозных ценностей,
перезаливаем

>

Культура как хранитель религиозных ценностей
Понедельник
Сэмпл: http://multi-up.com/1070895
качество: DVB
формат: MPG
Видео: MPEG 2, 704x576, (4:3), 25 fps, 5 083 kbps
Аудио: MP2, 48 kHz, 2 ch, 256 kbps

MediaInfo

GeneralComplete name : C:\Понедельник.mpgFormat : MPEG-PSFile size : 1 001 MiBDuration : 25mn 41sOverall bit rate mode : VariableOverall bit rate : 5 448 Kbps
VideoID : 224 (0xE0)Format : MPEG VideoFormat version : Version 2Format profile : Main@MainFormat settings, BVOP : YesFormat settings, Matrix : CustomFormat settings, GOP : M=3, N=15Format settings, picture structure : FrameDuration : 25mn 41sBit rate mode : VariableBit rate : 5 083 KbpsMaximum bit rate : 15.0 MbpsWidth : 720 pixelsHeight : 576 pixelsDisplay aspect ratio : 4:3Frame rate : 25.000 fpsStandard : PALColor space : YUVChroma subsampling : 4:2:0Bit depth : 8 bitsScan type : InterlacedScan order : Top Field FirstCompression mode : LossyBits/(Pixel*Frame) : 0.490Time code of first frame : 00:00:00:00Time code source : Group of pictures headerGOP, Open/Closed : ClosedStream size : 934 MiB (93%)
AudioID : 192 (0xC0)Format : MPEG AudioFormat version : Version 1Format profile : Layer 2Duration : 25mn 41sBit rate mode : ConstantBit rate : 256 KbpsChannel(s) : 2 channelsSampling rate : 48.0 KHzCompression mode : LossyDelay relative to video : 1msStream size : 47.1 MiB (5%)

Скриншоты

[teatrix.ru].t8893.torrent 
Торрент: Зарегистрирован [ 2015-10-18 08:55 ] · 028731505272B111D91F56533895DA0BA913DC4F

Скачать .torrent

Скачать

15 KB

Статус: проверено
Скачан: 0 раз
Размер: 1.44 GB
terms.php



Быстрый ответ

Имя:

      
Для отправки сообщений необходимо включить JavaScript
Показать сообщения:    

Текущее время: 04-Дек 02:56

Часовой пояс: UTC + 3


Вы можете начинать темы
Вы можете отвечать на сообщения
Вы не можете редактировать свои сообщения
Вы не можете удалять свои сообщения
Вы не можете голосовать в опросах
Вы не можете прикреплять файлы к сообщениям
Вы можете скачивать файлы