Игра в бисер с Игорем Волгиным (Андрей Туринов) [2015, Ток-шоу, DVB] Обновлено 07.10.2015


Статистика раздачи [Обновить пиров]
Размер:  4.37 GB   |    Зарегистрирован:  1 год 1 месяц   |    Скачан:  0 раз

Полного источника не было: Никогда

 
   
 
 
 

[Цитировать]

Игра в бисер с Игорем Волгиным
Дата/Год выпуска: 2015
Страна: Россия
Жанр: Ток-шоу
Продолжительность: ~ 00:39:00 выпуск
Перевод: Не требуется
Режиссер: Андрей Туринов
Телеканал: Россия Культура
Описание: Ведущий ток-шоу Игорь Волгин приглашает поучастовать в своеобразной игре для всех, кто воспринимает мировую литературу как уже написанную книгу, которую никто и никогда не постигнет до конца, и, тем не менее, каждое новое прочтение удивительно.
Когда мы говорим, что классика всегда современна, мы не задумываемся, что именно в созданном десятилетия, а то и века назад художественном произведении созвучно дню сегодняшнему, представлению современного человека о себе самом. Участники ток-шоу "Игра в бисер" с Игорем Волгиным пытаются найти ответы на этот вопрос и, заглянув в лучшие образцы мировой литературы, понять - кто мы и что мы.
Доп. информация: Все раздачи программы Игра в бисер с Игорем Волгиным
качество: DVB
формат: MPG
Видео: MPEG-PS, 768@720x576, 4:3, 3157 kbps, 0.304 bit/pixel, 25 fps
Аудио: MPEG-1 Layer 2, 192 Кбит/сек, 48000Hz 2 ch

Список выпусков/серий

2015-09-08. Х.-К. Андерсен - Сказки
2015-09-15. Ф.М. Достоевский - Братья Карамазовы
2015-09-22. Борис Слуцкий - Лирика
2015-09-29. Александр Солженицын - Один день Ивана Денисовича
2015-10-06. Ильф и Петров - Золотой теленок

MediaInfo

ОбщееПолное имя : D:\Игра в бисер c Игорем Волгиным. Сезон 2015-2016\2015-09-08. Х.-К. Андерсен - Сказки.mpgФормат : MPEG-PSРазмер файла : 953 МбайтПродолжительность : 39 м.Режим общего битрейта : ПеременныйОбщий поток : 3417 Кбит/секБиблиотека кодирования : (c) 1998-2009 Womble Multimedia, Inc. / MPEG Video Wizard (03/2009) / Jun 24 2009
ВидеоИдентификатор : 224 (0xE0)Формат : MPEG VideoВерсия формата : Version 2Профиль формата : Main@MainПараметр BVOP формата : ДаПараметр матрицы формата : ВыборочнаяПараметр GOP формата : VariableFormat_Settings_PictureStructure : FrameПродолжительность : 38 м.Вид битрейта : ПеременныйБитрейт : 3157 Кбит/секМаксимальный битрейт : 15,0 Мбит/секШирина : 720 пикселейВысота : 576 пикселейСоотношение сторон : 4:3Частота кадров : 25,000 кадров/секСтандарт вещания : PALЦветовое пространство : YUVСубдискретизация насыщенности : 4:2:0Битовая глубина : 8 битТип развёртки : ЧересстрочнаяПорядок развёртки : Верхнее поле первоеМетод сжатия : С потерямиБит/(Пиксели*Кадры) : 0.304Временной код первого кадра : 00:00:00:00Оригинал временного кода : Group of pictures headerРазмер потока : 881 Мбайт (92%)Библиотека кодирования : (c) 1998-2009 Womble Multimedia, Inc. / MPEG Video Wizard (03/2009) / Jun 24 2009
АудиоИдентификатор : 192 (0xC0)Формат : MPEG AudioВерсия формата : Version 1Профиль формата : Layer 2Продолжительность : 39 м.Вид битрейта : ПостоянныйБитрейт : 192 Кбит/секКаналы : 2 каналаЧастота : 48,0 КГцМетод сжатия : С потерямиЗадержка видео : -40 мс.Размер потока : 53,6 Мбайт (6%)

Скриншоты

[teatrix.ru].t8895.torrent 
Торрент: Зарегистрирован [ 2015-10-18 08:55 ] · 0E84B24332F1A5B7E0C793B05ABEF1BB2AAF8378

Скачать .torrent

Скачать

23 KB

Статус: проверено
Скачан: 0 раз
Размер: 4.37 GB
terms.php



Быстрый ответ

Имя:

      
Для отправки сообщений необходимо включить JavaScript
Показать сообщения:    

Текущее время: 05-Дек 03:30

Часовой пояс: UTC + 3


Вы можете начинать темы
Вы можете отвечать на сообщения
Вы не можете редактировать свои сообщения
Вы не можете удалять свои сообщения
Вы не можете голосовать в опросах
Вы не можете прикреплять файлы к сообщениям
Вы можете скачивать файлы