Давай познакомимся: Ариэль Домбаль, Рьер Перре, Ги Бедос / Fais-moi une place (Эпизоды 1-3 из 4) (Седрик Террассон / Cedric Terrasson) [2013 - 2014, документальный, познавательный, DVB] Original (Fre) + Sub (Rus)


Статистика раздачи [Обновить пиров]
Размер:  6.39 GB   |    Зарегистрирован:  1 год 1 месяц   |    Скачан:  0 раз

Полного источника не было: Никогда

 
   
 
 
 

[Цитировать]

Давай познакомимся
Fais-moi une place- Дата/Год выпуска: 2013 - 2014
Страна: Франция
Жанр: документальный, познавательный
Продолжительность: 04:23:25 (3 по ~01:28:00)
Перевод: Субтитры
Русские субтитры: естьФормат субтитров: hardsub (неотключаемые)
Доп. информация о субтитрах: перевод М.Кузиной, К.Семенюк, И.Рыбкиной, Éclair Group/Éclair Media
Оригинальная аудиодорожка: французский
Режиссер: Седрик Террассон / Cédric Terrasson
Телеканал: TV5MONDE
Описание: В поисках интервью журналистам порой приходится отправляться в дальние путешествия.
Французские документалисты предлагают необычный цикл под названием "Давай познакомимся", в котором встречи с известными деятелями культуры пройдут там, где те чувствуют себя наиболее комфортно – на отдыхе. Это не только новый взгляд на старых знакомых, но и открытие удивительных мест с запоминающимся колоритом и радушными жителями. Ведущей Алессандре Сюбле / Alessandra Sublet пришлось получить специальное разрешение певца Жюльена Клера / Julien Clerc на использование названия его известной песни в качестве названия телецикла.
Доп. информация: DVB-S. Эпизоды выходят неравномерно. За 2013-2014 годы вышло всего 4 эпизода.

качество: DVB
формат: MKV
Видео: MPEG Video 2, 704x576@1024x576 (16:9), 25 fps, ~3172 kbps avg, 0.313 bit/pixel
Аудио: Французский (MPEG Audio 2, 2 ch, 48 kHz, ~192.00 kbps avg)

Список выпусков/серий01. Пьер Перре в Ирландии / Pierre Perret en Irlande (2013)

Продолжительность: 01:28:33
Перевод: Субтитры (перевод М.Кузиной, Éclair Group)
Описание: Сегодня мы отправимся в Ирландию. Именно туда французский шансонье, актер, писатель и переводчик Пьер Перре и его жена уезжают на несколько недель в год.

Скриншоты


Резервные скриншоты


02. Ариэль Домбаль и Мексика / Arielle Dombasle et Mexique (2014)

Продолжительность: 01:28:33
Перевод: Субтитры (перевод К.Семенюк, Éclair Group)
Описание: Дочь Жана-Луи Соннери, мексиканского промышленника, и внучка по материнской линии французского посла в Мексике Мориса Гаррье-Домбаля. Мать девочки рано ушла из жизни, и Ариэль свое детство и юность провела с дедушкой в Мексике, среди древних идолов культур ацтеков и майя и строгих католических традиций современной мексиканской культуры.

Скриншоты


Резервные скриншоты


03. Ги Бедос на Корсике / Guy Bedos en Corse (2014)

Продолжительность: 01:26:12
Перевод: Субтитры (перевод И.Рыбкиной, Éclair Media)
Описание: Французский юморист, художник-оформитель, музыкант, актер и писатель Ги Бедос имеет испанскую кровь. Поэтому не случайно его выбор пал на Корсику.

Скриншоты


Резервные скриншоты


MediaInfo

ОбщееУникальный идентификатор : 216510908928954059775646847182999510390 (0xA2E27BF9BA09021BA5F42F29FF41DD76)Полное имя : E:\My Torrents 2\[apreder]Fais-moi_une_place\01. Pierre_Perret_en_Irlande(2013)DVB.mkvФормат : MatroskaВерсия формата : Version 2Размер файла : 2,12 ГбайтПродолжительность : 1 ч. 28 м.Режим общего битрейта : ПеременныйОбщий поток : 3433 Кбит/секДата кодирования : UTC 2015-02-03 15:56:00Программа кодирования : mkvmerge v7.5.0 ('Glass Culture') 64bit built on Jan 4 2015 16:48:44Библиотека кодирования : libebml v1.3.1 + libmatroska v1.4.2
ВидеоИдентификатор : 1Формат : MPEG VideoВерсия формата : Version 2Профиль формата : Main@MainПараметр BVOP формата : ДаПараметр матрицы формата : ВыборочнаяПараметр GOP формата : M=3, N=15Format_Settings_PictureStructure : FrameИдентификатор кодека : V_MPEG2Идентификатор кодека/Информация : MPEG 1 or 2 VideoПродолжительность : 1 ч. 28 м.Вид битрейта : ПеременныйБитрейт : 3172 Кбит/секШирина : 704 пикселяВысота : 576 пикселейСоотношение сторон : 16:9Режим частоты кадров : ПостоянныйЧастота кадров : 25,000 кадров/секСтандарт вещания : PALЦветовое пространство : YUVСубдискретизация насыщенности : 4:2:0Битовая глубина : 8 битТип развёртки : ЧересстрочнаяПорядок развёртки : Верхнее поле первоеМетод сжатия : С потерямиБит/(Пиксели*Кадры) : 0.313Временной код первого кадра : 00:00:00:00Оригинал временного кода : Group of pictures headerРазмер потока : 1,96 Гбайт (92%)Default : ДаForced : НетGop_OpenClosed_FirstFrame : Closed
АудиоИдентификатор : 2Формат : MPEG AudioВерсия формата : Version 1Профиль формата : Layer 2Идентификатор кодека : A_MPEG/L2Идентификатор кодека/Подсказка : MP2Продолжительность : 1 ч. 28 м.Вид битрейта : ПостоянныйБитрейт : 192 Кбит/секКаналы : 2 каналаЧастота : 48,0 КГцМетод сжатия : С потерямиРазмер потока : 122 Мбайт (6%)Язык : FrenchDefault : ДаForced : Нет

-

Внимание! Раздача ведётся путём добавления новых выпусков

Внимание! Раздача ведётся путём добавления новых выпусков; при каждом добавлении создаётся новый торрент. Чтобы начать докачку нового выпуска, пользователям необходимо сделать следующее:
(1) остановить скачивание,
(2) удалить старый торрент у себя из клиента (старые серии удалять не надо),
(3) скачать новый торрент и запустить его у себя в клиенте вместо старого, при этом указать клиенту путь в старую папку куда и должно происходить скачивание новых выпусков.
Ваш клиент при этом должен произвести хеширование (проверку) старой папки (если не производит сам - помогите ему сделать это). В результате он будет докачивать только те выпуски, которых у Вас ещё нет. Старые выпуски при этом не удаляются, а продолжают раздаваться!
Eсли Вы уже удалили старые выпуски, то предотвратить их повторную закачку можно, сняв галочки в соответствующих местах при запуске нового торрента. По возможности, желательно не удалять старые выпуски как можно дольше, чтобы релизёр не только продолжал раздавать старые выпуски, но и смог сконцентрироваться на новых.
-[2'094]
[teatrix.ru].t8898.torrent 
Торрент: Зарегистрирован [ 2015-10-18 08:55 ] · E34559BF32A123208E99B4278A7B66DB46391449

Скачать .torrent

Скачать

33 KB

Статус: проверено
Скачан: 0 раз
Размер: 6.39 GB
terms.php



Быстрый ответ

Имя:

      
Для отправки сообщений необходимо включить JavaScript
Показать сообщения:    

Текущее время: 09-Дек 06:57

Часовой пояс: UTC + 3


Вы можете начинать темы
Вы можете отвечать на сообщения
Вы не можете редактировать свои сообщения
Вы не можете удалять свои сообщения
Вы не можете голосовать в опросах
Вы не можете прикреплять файлы к сообщениям
Вы можете скачивать файлы