Хоакин Соролья / La emocion del natural. Vida y obra de Joaquin Sorolla (Хосе Луис Лопес-Линарес / Jose Luis Lopez-Linares) [2009, документальный, изобразительное искусство, DVB] VO (SDI Media)


Статистика раздачи [Обновить пиров]
Размер:  786 MB   |    Зарегистрирован:  1 год 1 месяц   |    Скачан:  0 раз

Полного источника не было: Никогда

 
   
 
 
 

[Цитировать]

Хоакин Соролья
La emoción del natural. Vida y obra de Joaquín Sorolla- Дата/Год выпуска: 2009
Страна: Испания
Жанр: документальный, изобразительное искусство
Продолжительность: 00:51:50
Перевод: Студийный (одноголосый закадровый)
Доп. инфо о переводе: Компания SDI Media заказу ТПО "Ред Медиа"
Русские субтитры: нет
Режиссер: Хосе Луис Лопес-Линарес / José Luis López-Linares
Телеканал: 365 днейОписание: Хоаки́н Сорóлья-и-Басти́да (1863-1923) — испанский живописец. Считается крупнейшим представителем импрессионизма в Испании. Его работы были награждены премиями в Испании и США, отмечены критикой и публикой на Парижских салонах. Венцом стала экспозиция его работ на Всемирной выставке в Париже (1900), за которую он был награжден почетной медалью и орденом Почётного легиона, стал почетным членом художественных академий Парижа, Лиссабона и Валенсии.
Доп. информация: DVB-S

качество: DVB
формат: MKV
Видео: MPEG Video 2, 720x576@768x576 (4:3), 25 fps, ~1884 kbps avg, 0.182 bit/pixel
Аудио: MPEG Audio 2, 2 ch, 48 kHz, ~192.00 kbps avg

MediaInfo

ОбщееУникальный идентификатор : 235990387925122977037866758987354015350 (0xB18A1870AC51D98F9E0BB39E7F310676)Полное имя : F:\My Torrents 3\[apreder]La_emocion_del_natural(2009)DVB.mkvФормат : MatroskaВерсия формата : Version 2Размер файла : 786 МбайтПродолжительность : 51 м.Режим общего битрейта : ПеременныйОбщий поток : 2118 Кбит/секДата кодирования : UTC 2015-09-11 15:24:13Программа кодирования : mkvmerge v8.3.0 ('Over the Horizon') 64bitБиблиотека кодирования : libebml v1.3.1 + libmatroska v1.4.2Attachements : cover.jpg / cover_small.jpgTITLE : La emoción del natural. Vida y obra de Joaquín SorollaDATE_RELEASED : 2009-00-00LAW_RATING : 12+GENRE : DocumentaryDIRECTOR : José Luis López-LinaresKEYWORDS :
ВидеоИдентификатор : 1Формат : MPEG VideoВерсия формата : Version 2Профиль формата : Main@MainПараметр BVOP формата : ДаПараметр матрицы формата : ВыборочнаяПараметр GOP формата : M=3, N=36Format_Settings_PictureStructure : FrameИдентификатор кодека : V_MPEG2Идентификатор кодека/Информация : MPEG 1 or 2 VideoПродолжительность : 51 м.Вид битрейта : ПеременныйБитрейт : 1884 Кбит/секШирина : 720 пикселейВысота : 576 пикселейСоотношение сторон : 4:3Режим частоты кадров : ПостоянныйЧастота кадров : 25,000 кадров/секСтандарт вещания : PALЦветовое пространство : YUVСубдискретизация насыщенности : 4:2:0Битовая глубина : 8 битТип развёртки : ЧересстрочнаяПорядок развёртки : Верхнее поле первоеМетод сжатия : С потерямиБит/(Пиксели*Кадры) : 0.182Временной код первого кадра : 00:00:00:00Оригинал временного кода : Group of pictures headerРазмер потока : 699 Мбайт (89%)Default : ДаForced : Нет
АудиоИдентификатор : 2Формат : MPEG AudioВерсия формата : Version 1Профиль формата : Layer 2Идентификатор кодека : A_MPEG/L2Идентификатор кодека/Подсказка : MP2Продолжительность : 51 м.Вид битрейта : ПостоянныйБитрейт : 192 Кбит/секКаналы : 2 каналаЧастота : 48,0 КГцМетод сжатия : С потерямиРазмер потока : 71,2 Мбайт (9%)Язык : RussianDefault : ДаForced : Нет

Скриншоты

Резервные скриншоты

[teatrix.ru].t8899.torrent 
Торрент: Зарегистрирован [ 2015-10-18 08:55 ] · 60143395162719717DC762E78E6104B342A66EBA

Скачать .torrent

Скачать

16 KB

Статус: проверено
Скачан: 0 раз
Размер: 786 MB
terms.php



Быстрый ответ

Имя:

      
Для отправки сообщений необходимо включить JavaScript
Показать сообщения:    

Текущее время: 09-Дек 04:59

Часовой пояс: UTC + 3


Вы можете начинать темы
Вы можете отвечать на сообщения
Вы не можете редактировать свои сообщения
Вы не можете удалять свои сообщения
Вы не можете голосовать в опросах
Вы не можете прикреплять файлы к сообщениям
Вы можете скачивать файлы