Третьяковка - дар бесценный! (50 выпусков) [2002-2009, Документальный цикл, TVRip / DVB]


Статистика раздачи [Обновить пиров]
Размер:  21.2 GB   |    Зарегистрирован:  1 год 1 месяц   |    Скачан:  3 раза

Полного источника не было: 11 часов

 
   
 
 
 

[Цитировать]

Третьяковка - дар бесценный!
Страна: Россия, Телеканал "Культура"
Жанр: Документальный цикл
Продолжительность: 00:25:31
Год выпуска: 2002-2009
Рип: , marfa12, dean10,
Перевод: Не требуется
Русские субтитры: нет
Описание:
Документальный цикл «Третьяковка - дар бесценный!» рассказывает о коллекциях Государственной Третьяковской галереи. Каждая программа - монографический фильм-портрет о великих художниках или образный фильм («Век ХVIII», «Русский пейзаж», «Век ХХ»и др.).
Программа выходит в эфир с 10 сентября 2002 года.
Доп. информация: Автор и ведущий Владимир Венедиктов.
Качество : TVRip / DVB
30.08.2015 _ добавил свои одиночные раздачи
перезалейте торрент-файл

MI

General
Complete name : D:48. Иной мир. Лики древней Руси.mpg
Format : MPEG-PS
File size : 496 MiB
Duration : 25mn 44s
Overall bit rate mode : Variable
Overall bit rate : 2 694 Kbps
Video
ID : 224 (0xE0)
Format : MPEG Video
Format version : Version 2
Format profile : Main@Main
Format settings, BVOP : Yes
Format settings, Matrix : Custom
Format settings, GOP : M=3, N=24
Duration : 25mn 44s
Bit rate mode : Variable
Bit rate : 2 449 Kbps
Maximum bit rate : 15.0 Mbps
Width : 704 pixels
Height : 576 pixels
Display aspect ratio : 4:3
Frame rate : 25.000 fps
Standard : PAL
Color space : YUV
Chroma subsampling : 4:2:0
Bit depth : 8 bits
Scan type : Interlaced
Scan order : Top Field First
Compression mode : Lossy
Bits/(Pixel*Frame) : 0.242
Time code of first frame : 00:00:00:00
Time code source : Group of pictures header
Stream size : 451 MiB (91%)
Audio
ID : 192 (0xC0)
Format : MPEG Audio
Format version : Version 1
Format profile : Layer 2
Duration : 25mn 44s
Bit rate mode : Constant
Bit rate : 192 Kbps
Channel(s) : 2 channels
Sampling rate : 48.0 KHz
Compression mode : Lossy
Delay relative to video : 20ms
Stream size : 35.4 MiB (7%)

Внимание ! Раздача ведётся путём добавления новых серий

Внимание! Раздача ведётся путём добавления новых серий; при каждом добавлении создётся новый торрент. Чтобы начать докачку новой серии, пользователям необходимо сделать следующее:
(1) остановить скачивание,
(2) удалить старый торрент у себя из клиента (старые серии удалять не надо),
(3) скачать новый торрент и запустить его у себя в клиенте вместо старого, при этом указать клиенту путь в старую папку куда и должно происходить скачивание новых серий.
Ваш клиент при этом должен произвести хеширование (проверку) старой папки (если не производит сам - помогите ему сделать это), и будет докачивать только те серии которых у вас
ещё нет. Старые серии при этом не удаляются, а продолжают раздаваться!

>

Адресаты Лаврушинского
Александр Иванов
Алексей Венецианов и его школа
Алексей Саврасов
Архип Куинджи и его ученики
Братья Павел и Сергей Третьяковы
Бубновый валет
В поисках утраченного времени. Наталия Гончарова и Михаил Ларионов
Василий Поленов
Василий Суриков
Василий Тропинин
Век портрета
Веками будет радовать сердца
Владимир Боровиковский
Война и мир Василия Верещагина
Голубая роза
Дело в шляпе
Дмитрий Левицкий
Дом передвижников. Крамской и Товарищество
Дом передвижников
Ее ничто не согнет. Анна Голубкина
Живая традиция
Жизнь и грезы Бориса Кустодиева
Жизнь, Смерть, Память
И это все - мы. Рязанская земля Виктора Иванова
Иной мир. Лики древней Руси
Иной мир. Умозрение в красках
Исаак Левитан
История в лицах и судьбах
Казимир Малевич и русский авангард
Карл Брюллов
Картине - жить! ОСТ
Космизм Петрова-Водкина
Мост в будущее
Не то, что мните вы, природа
Пленники красоты
Преданья старины глубокой
Прекрасное есть жизнь
Русский салон или фантазии на исторические темы
Русь Неуходящая. Павел Корин
Серебряный век. Сны раздумий небывалых
Синяя птица удачи
Созвездие имен
Сокровищница
Тихая жизнь
Улыбка жизни быстротечной...
Художники рода Васнецовых
Что есть истина
Штрих и слово. Очерки о книжной графике ХХ века
Я романтизму отдал дань
[teatrix.ru].t8900.torrent 
Торрент: Зарегистрирован [ 2015-10-18 08:55 ] · 07D7E4BBFEA20168E8B5D9FF608780CB89B8DDDB

Скачать .torrent

Скачать

110 KB

Статус: проверено
Скачан: 3 раз
Размер: 21.2 GB
terms.php



Быстрый ответ

Имя:

      
Для отправки сообщений необходимо включить JavaScript
Показать сообщения:    

Текущее время: 05-Дек 19:39

Часовой пояс: UTC + 3


Вы можете начинать темы
Вы можете отвечать на сообщения
Вы не можете редактировать свои сообщения
Вы не можете удалять свои сообщения
Вы не можете голосовать в опросах
Вы не можете прикреплять файлы к сообщениям
Вы можете скачивать файлы