Тайный мир эротического искусства / Secret World Of Erotic Art (Рик Хаузер / Rick Hauser) [1980, документальный, история искусства, DVDRip]


Статистика раздачи [Обновить пиров]
Размер:  747 MB   |    Зарегистрирован:  1 год 1 месяц   |    Скачан:  0 раз
Сидов:  1  [  0 KB/s  ]   Подробная статистика пиров
 
   
 
 
 

[Цитировать]

Тайный мир эротического искусства / Secret World Of Erotic Art- Год выпуска: 1980
Страна: США
Жанр: документальный, история искусства
Продолжительность: 00:52:09
Перевод: Профессиональный (двухголосый закадровый)
Русские субтитры: нет
Оригинальная аудиодорожка: нет
Режиссер: Рик Хаузер / Rick Hauser
Описание: В доме у молодой пары собраны предметы искусства, посвященные эротике. Картины, убранство, аксессуары привезены со всех концов мира. Китайские статуэтки, причудливой формы курительная трубка, колода игральный карт, часы с потайной картинкой - каждый из этик изящных образцов эротического искусства становится прологом очередной главы фильма. Отдельно место отведено работам Брэдли Смита - фотографа с мировым именем, чьи изображения достойно продолжают традиции, великих мастеров прошлого, воспевающих красоту человеческого тела
(Gahan Dave).
Доп. информация: ИСТОЧНИК | СЭМПЛ | АНАЛОГ
качество: DVDRip
формат: AVI
Видео: Xvid, 512x400 (1,280), 25.000 fps, 1864 kbps, 0.364 bit/pixel
Аудио: MP3, 48.0 KHz, stereo, 128kbps, 2 ch., MPEG Audio

MediaInfo

ОбщееПолное имя : D:\D O C U M E N T A L\Secret World Of Erotic Art (1980).aviФормат : AVIФормат/Информация : Audio Video InterleaveРазмер файла : 747 МбайтПродолжительность : 52 м.Общий поток : 2002 Кбит/секПрограмма кодирования : VirtualDubMod 1.5.10.3 | www.virtualdub-fr.org || (build 2550/release)Библиотека кодирования : VirtualDubMod build 2550/release
ВидеоИдентификатор : 0Формат : MPEG-4 VisualПрофиль формата : Advanced Simple@L5Параметр BVOP формата : 2Параметр QPel формата : НетПараметр GMC формата : Без точки переходаПараметр матрицы формата : ВыборочнаяИдентификатор кодека : XVIDИдентификатор кодека/Подсказка : XviDПродолжительность : 52 м.Битрейт : 1864 Кбит/секШирина : 512 пикселейВысота : 400 пикселейСоотношение сторон :Частота кадров : 25,000 кадров/секЦветовое пространство : YUVСубдискретизация насыщенности : 4:2:0Битовая глубина : 8 битТип развёртки : ПрогрессивнаяМетод сжатия : С потерямиБит/(Пиксели*Кадры) : 0.364Размер потока : 695 Мбайт (93%)Библиотека кодирования : XviD 73
АудиоИдентификатор : 1Формат : MPEG AudioВерсия формата : Version 1Профиль формата : Layer 3Идентификатор кодека : 55Идентификатор кодека/Подсказка : MP3Продолжительность : 52 м.Вид битрейта : ПостоянныйБитрейт : 128 Кбит/секКаналы : 2 каналаЧастота : 48,0 КГцМетод сжатия : С потерямиРазмер потока : 47,7 Мбайт (6%)Выравнивание : Соединение по промежуткамПродолжительность промежутка : 40 мс. (1,00 видеокадр)Время предзагрузки промежутка : 504 мс.Библиотека кодирования : LAME3.99rНастройки программы : -m s -V 4 -q 2 -lowpass 17 -b 128

Скриншоты

[teatrix.ru].t8901.torrent 
Торрент: Зарегистрирован [ 2015-10-18 08:55 ] · E71DE74F1C55C493F754D454879251A069CCFC0F

Скачать .torrent

Скачать

15 KB

Статус: проверено
Скачан: 0 раз
Размер: 747 MB
terms.php



Быстрый ответ

Имя:

      
Для отправки сообщений необходимо включить JavaScript
Показать сообщения:    

Текущее время: 09-Дек 22:22

Часовой пояс: UTC + 3


Вы можете начинать темы
Вы можете отвечать на сообщения
Вы не можете редактировать свои сообщения
Вы не можете удалять свои сообщения
Вы не можете голосовать в опросах
Вы не можете прикреплять файлы к сообщениям
Вы можете скачивать файлы