Брок Энрайт: Хорошие времена уже позади / Brock Enright: Good Times Will Never Be the Same (Джоди Ли Липс / Jody Lee Lipes) [2009, документальный, концептуальное искусство, DVB-AVC] DVO (Kino Polska)


Статистика раздачи [Обновить пиров]
Размер:  464 MB   |    Зарегистрирован:  1 год 1 месяц   |    Скачан:  1 раз

Полного источника не было: 3 месяца 19 дней

 
   
 
 
 

[Цитировать]

Брок Энрайт: Хорошие времена уже позади
Brock Enright: Good Times Will Never Be the Same- Дата/Год выпуска: 2009
Страна: США
Жанр: документальный, концептуальное искусство
Продолжительность: 01:15:39
Перевод: Профессиональный (двухголосый закадровый)
Доп. инфо о переводе: по заказу Kino Polska на производственно-технической базе Студии "Акцент"
Русские субтитры: нет
Режиссер: Джоди Ли Липс / Jody Lee Lipes
Телеканал: Filmbox Arthouse
Описание: Брок Энрайт получил степень бакалавра в Школе изобразительных искусств на Манхэттене, а позже и магистра, у него несколько раз проходили персональные выставки картин и снимков, а в последние пару лет он больше известен как режиссер.
Большинство клиентов Брока Энрайта хотят, чтобы им "задали небольшую взбучку". 25-летний художник из Нью-Йорка делает неплохие деньги, спекулируя на тяге людей к приключениям. В стремлении спастись от повседневной рутины любой обитатель Манхэттена может заказать Броку собственное похищение, чтобы потом, забившись под кровать и дрожа от страха, дожидаться людей в масках.
В этом документальном фильме показан процесс создания одного из концептуальных произведений Брока Энрайта. Вместе с подругой Кирстен Дейрап и съемочной группой он отправляется из Бруклина в местечко Мендосино в Калифорнии, где проживают родители Кирстен. В лесу на импровизированной сцене он делает постановку своего перформанса.
Доп. информация: IPTV
Награда: Специальный приз жюри за лучший документальный фильм Sarasota Film Festival 2009.

качество: DVB-AVC
формат: MKV
Видео: AVC (H.264), 720x576@1024x576 (16:9), 25 fps, ~713 kbps avg, 0.069 bit/pixel
Аудио: MPEG Audio 2, 2 ch, 48 kHz, ~128.00 kbps avg

Доп. информация о редактировании

Запись IPTV с Торрент-ТВ в SimpleTV b9 (2.2.1) в формате *.ts
Обрезка в Smart Cutter 1.9.2
Демукс в tsMuxerGUI 2.6.12
Сборка в контейнер *.mkv в mkvmerge GUI 8.0.0

MediaInfo

ОбщееУникальный идентификатор : 180778179204644163078874087805307138005 (0x88009C61771E9173A4F146B4B62D2FD5)Полное имя : F:\My Torrents 3\[apreder]Brock_Enright_Good_Times_Will_Never_Be_the_Same(2009)DVB.mkvФормат : MatroskaВерсия формата : Version 2Размер файла : 464 МбайтПродолжительность : 1 ч. 15 м.Общий поток : 858 Кбит/секДата кодирования : UTC 2015-06-27 05:57:47Программа кодирования : mkvmerge v8.0.0 ('Til The Day That I Die') 64bitБиблиотека кодирования : libebml v1.3.1 + libmatroska v1.4.2
ВидеоИдентификатор : 2Формат : AVCФормат/Информация : Advanced Video CodecПрофиль формата : Main@L3Параметр CABAC формата : ДаПараметр ReFrames формата : 3 кадраИдентификатор кодека : V_MPEG4/ISO/AVCПродолжительность : 1 ч. 15 м.Битрейт : 713 Кбит/секШирина : 720 пикселейВысота : 576 пикселейСоотношение сторон : 16:9Соотношение сторон в оригинале : 16:9Режим частоты кадров : ПостоянныйЧастота кадров : 25,000 кадров/секСтандарт вещания : ComponentЦветовое пространство : YUVСубдискретизация насыщенности : 4:2:0Битовая глубина : 8 битТип развёртки : ПрогрессивнаяПорядок развёртки : Верхнее поле первоеБит/(Пиксели*Кадры) : 0.069Размер потока : 386 Мбайт (83%)Default : ДаForced : Нетcolour_range : LimitedОсновные цвета : BT.601 PALХарактеристики трансфера : BT.470 System B, BT.470 System GКоэффициенты матрицы : BT.601
АудиоИдентификатор : 1Формат : MPEG AudioВерсия формата : Version 1Профиль формата : Layer 2Идентификатор кодека : A_MPEG/L2Идентификатор кодека/Подсказка : MP2Продолжительность : 1 ч. 15 м.Вид битрейта : ПостоянныйБитрейт : 128 Кбит/секКаналы : 2 каналаЧастота : 48,0 КГцМетод сжатия : С потерямиЗадержка видео : -21 мс.Размер потока : 69,3 Мбайт (15%)Язык : RussianDefault : ДаForced : Нет

Скриншоты


Резервные скриншоты


-[2'389]
[teatrix.ru].t8904.torrent 
Торрент: Зарегистрирован [ 2015-10-18 08:55 ] · 2D6EF117DF511C3F44007B03E8AAF475A4CC5DFF

Скачать .torrent

Скачать

19 KB

Статус: проверено
Скачан: 1 раз
Размер: 464 MB
terms.php



Быстрый ответ

Имя:

      
Для отправки сообщений необходимо включить JavaScript
Показать сообщения:    

Текущее время: 11-Дек 03:22

Часовой пояс: UTC + 3


Вы можете начинать темы
Вы можете отвечать на сообщения
Вы не можете редактировать свои сообщения
Вы не можете удалять свои сообщения
Вы не можете голосовать в опросах
Вы не можете прикреплять файлы к сообщениям
Вы можете скачивать файлы