BBC: Частная жизнь шедевра (4 серии) / The Private Life of a Masterpiece (Ян Майкл Джонс / Ian Michael Jones, Джон Баш / John Bush, Люси Донахью / Lucie Donahue) [2006, документальный, познавательный, искусство, живопись, DVB]


Статистика раздачи [Обновить пиров]
Размер:  3.57 GB   |    Зарегистрирован:  1 год 1 месяц   |    Скачан:  0 раз

Полного источника не было: Никогда

Личеров:  1  [  0 KB/s  ]   Подробная статистика пиров
 
   
 
 
 

[Цитировать]

BBC: Частная жизнь шедевра (4 серии) / The Private Life of a Masterpiece
Дата/Год выпуска: 2006
Страна: Великобритания
Жанр: документальный, познавательный, искусство, живопись
Продолжительность: 4 серии по ~ 49 минут
Перевод: Профессиональный (двухголосый закадровый)
Доп. инфо о переводе: ТПО Ред-Медиа
Режиссер: Ян Майкл Джонс /Ian Michael Jones, Джон Баш / John Bush, Люси Донахью / Lucie Donahue
Телеканал: 365 дней
Описание: Уникальный цикл фильмов, посвященный величайшим произведениям искусства, созданным выдающимися скульпторами и живописцами. Программа расскажет о том, как создавались эти шедевры и какое влияние они оказывали и продолжают оказывать на все человечество до сих пор.
Сэмпл: http://sendfile.su/1127842
качество: DVB
формат: MPG
Видео: Video: MPEG2 Video 720x576 (4:3) 25fps 15000kbps [V: mpeg2 main, yuv420p, 720x576, 15000 kb/s]
Аудио: Audio: MPEG Audio 48000Hz stereo 192kbps [A: mp2, 48000 Hz, stereo, 192 kb/s]

Список выпусков/серий

1. Дитя Божье (Поль Гоген)
2. Благовещение (Ян ван Эйк)
3. Перепись в Вифлееме (Питер Брейгель)
4. Мистическое рождество (Сандро Ботичелли)

MediaInfo

GeneralComplete name : F:\Живопись\Частная жизнь шедевра\4. Мистическое рождество (Сандро Ботичелли).mpgFormat : MPEG-PSFile size : 1.01 GiBDuration : 49mn 19sOverall bit rate mode : VariableOverall bit rate : 2 945 Kbps
VideoID : 224 (0xE0)Format : MPEG VideoFormat version : Version 2Format profile : Main@MainFormat settings, BVOP : YesFormat settings, Matrix : CustomFormat settings, GOP : VariableFormat settings, picture struc : FrameDuration : 49mn 19sBit rate mode : VariableBit rate : 2 694 KbpsMaximum bit rate : 15.0 MbpsWidth : 720 pixelsHeight : 576 pixelsDisplay aspect ratio : 4:3Frame rate : 25.000 fpsStandard : PALColor space : YUVChroma subsampling : 4:2:0Bit depth : 8 bitsScan type : InterlacedScan order : Top Field FirstCompression mode : LossyBits/(Pixel*Frame) : 0.260Time code of first frame : 00:00:00:00Time code source : Group of pictures headerStream size : 951 MiB (91%)
AudioID : 192 (0xC0)Format : MPEG AudioFormat version : Version 1Format profile : Layer 2Duration : 49mn 19sBit rate mode : ConstantBit rate : 192 KbpsChannel(s) : 2 channelsSampling rate : 48.0 KHzCompression mode : LossyDelay relative to video : 24msStream size : 67.7 MiB (7%)

Живопись

Женский гений живописи http://teatrix.ru/viewtopic.php?t=8911
[teatrix.ru].t8906.torrent 
Торрент: Зарегистрирован [ 2015-10-18 08:55 ] · 4C83A7F81A05D4B5A6AD28DE88885E4A8FF5807F

Скачать .torrent

Скачать

19 KB

Статус: проверено
Скачан: 0 раз
Размер: 3.57 GB
terms.php



Быстрый ответ

Имя:

      
Для отправки сообщений необходимо включить JavaScript
Показать сообщения:    

Текущее время: 11-Дек 11:09

Часовой пояс: UTC + 3


Вы можете начинать темы
Вы можете отвечать на сообщения
Вы не можете редактировать свои сообщения
Вы не можете удалять свои сообщения
Вы не можете голосовать в опросах
Вы не можете прикреплять файлы к сообщениям
Вы можете скачивать файлы