Петергоф-жемчужина России (8 серий) (Юлия Герра) [2009-2012, документальный, исторический, архитектура, искусство, DVB]


Статистика раздачи [Обновить пиров]
Размер:  4.01 GB   |    Зарегистрирован:  1 год 1 месяц   |    Скачан:  2 раза

Полного источника не было: 2 месяца 16 дней

 
   
 
 
 

[Цитировать]

Петергоф-жемчужина России (8 серий)
Дата/Год выпуска: 2009-2012
Жанр: документальный, исторический, архитектура, искусство
Продолжительность: серии по ~ 26 минут
Перевод: Не требуется
Режиссер: Юлия Герра
Телеканал: 365 дней
Описание: Документальный фильм о жемчужине архитектурной истории нашей страны — Петергофе. В этой ленте подробно рассматривается прошлое и настоящее этого прекрасного города. У каждого здания Петергофа, у каждой статуи, у каждого фонтана есть своя интересная история создания и своя судьба, неразрывно связанная с эпохальным путем России. Об интереснейших моментах строительства, об идеях возведения великолепных памятников и рассказывает эта кинолента.
Доп. информация: В мире трудно найти город, равный по красоте Петергофу. Он знаменит не только своими фонтанами. Это целый заповедник уникальных дворцов и парков. История выдающихся ансамблей, бесподобных произведений архитектуры и непревзойденных шедевров, а также рассказы об их создателях и владельцах не оставят зрителя равнодушным.
Сэмпл: http://sendfile.su/1125730
качество: DVB
формат: MPG
Видео: Video: MPEG2 Video 720x576 (4:3) 25fps [V: mpeg2 main, yuv420p, 720x576]
Аудио: Audio: MPEG Audio 48000Hz stereo 192kbps [A: mp2, 48000 Hz, stereo, 192 kb/s]

Список выпусков/серий

1 серия - "Померанцевое дерево. От Александра до Петра" (2012)
История дворцово-паркового ансамбля на южном берегу Финского залива - Ораниенбаума. Фильм о том, как владение Святейшего князя Александра Меншикова стало резиденцией Императора ПетраI
2 серия - "Померанцевое дерево. От Екатерины до Елены" (2012)
Продолжение истории дворцово-паркового ансамбля на южном берегу Финского залива – Ораниенбаума. Фильм расскажет о строительстве Собственной дачи Императрицы Екатерины II в стиле рококо, а также о периоде владения поместьем великой княгиней Еленой Павловной.
3 серия - "Великое творение Бенуа" (2009)
В России этому человеку не поставлен памятник, хотя его вклад в архитектуру можно приравнять к подвигу. В мире трудно найти город, равный по красоте Петергофу. Этот фильм рассказывает о самом замечательном и плодотворном периоде творчества Николая Бенуа (1813-1898) и о безусловных архитектурных шедеврах, созданных гением этого неповторимого художника. А также о великолепной семье Бенуа, все дети которой впоследствии стали известными талантливыми художниками.
4 серия - "Белая Роза Петергофа" (2011)
Рассказ об усадьбе и парке Александрия, ставшей дачей Великой Императрицы Александры Федоровны. Этот фильм повествует об истории памятников мировой архитектуры и дворцово-паркового искусства музея-заповедника «Петергоф», а также о дворце-коттедже и парке Александрия, подаренных государем Николаем I своей жене Александре Федоровне.
5 серия - "Варфоломеевский Петергоф" (2011)
Фильм о выдающихся и бесподобных произведениях архитектуры, созданных во всемирно известном музее-заповеднике «Петергоф» прославленным итальянским зодчим Бартоломео Растрелли.
6 серия - "Мари-Антуан Карем. Король кухни" (2009)
За мастерство кулинарных творений его называли "Палладио кондитерского дела". Монархи великих европейских держав мечтали заполучить Мари-Антуан Карема (1784-1833) в придворные повара. Он был поваром Талейрана, Наполеона, принца Георга Уэльского, Александра I, Ротшильда. Он первым ввел точную рецептуру, первым стал разрабатывать теорию соответствия еды и вина. Но главный переворот он совершил в сознании людей: приготовление еды - искусство, а повар должен быть истинным художником.
7 серия - "Ферма-дворец" (2012)
Фермерский дворец – один из уникальных памятников Петергофа. Он построен в 1831 году по проекту архитектора Адама Менеласа на территории собственной Ее Императорского величества Александры Федоровны даче «Александрия». Фермерский дворец стал местом принятия важнейших государственных решений. В 1979 году он вошёл в музейный комплекс Петергофа.
8 серия - "Монплезир двора Петрова" (2011)
Фильм о любимом дворце российского императора Петра I в Петергофе – Монплезире. Позже на его территории была открыта первая картинная галерея. Зрители узнают об интересных фактах этого непревзойденного шедевра архитектуры.

MediaInfo

GeneralComplete name : G:\Петергоф\4. Белая роза Петергофа.mpgFormat : MPEG-PSFile size : 508 MiBDuration : 25mn 58sOverall bit rate mode : VariableOverall bit rate : 2 732 Kbps
VideoID : 224 (0xE0)Format : MPEG VideoFormat version : Version 2Format profile : Main@MainFormat settings, BVOP : YesFormat settings, Matrix : CustomFormat settings, GOP : VariableFormat settings, picture struc : FrameDuration : 25mn 58sBit rate mode : VariableBit rate : 2 486 KbpsMaximum bit rate : 15.0 MbpsWidth : 720 pixelsHeight : 576 pixelsDisplay aspect ratio : 4:3Frame rate : 25.000 fpsStandard : PALColor space : YUVChroma subsampling : 4:2:0Bit depth : 8 bitsScan type : InterlacedScan order : Top Field FirstCompression mode : LossyBits/(Pixel*Frame) : 0.240Time code of first frame : 00:00:00:00Time code source : Group of pictures headerStream size : 462 MiB (91%)
AudioID : 192 (0xC0)Format : MPEG AudioFormat version : Version 1Format profile : Layer 2Duration : 25mn 58sBit rate mode : ConstantBit rate : 192 KbpsChannel(s) : 2 channelsSampling rate : 48.0 KHzCompression mode : LossyDelay relative to video : 24msStream size : 35.7 MiB (7%)
[teatrix.ru].t8908.torrent 
Торрент: Зарегистрирован [ 2015-10-18 08:55 ] · 68578B389F279765C86D49DDEFD5FCEEE8728097

Скачать .torrent

Скачать

21 KB

Статус: проверено
Скачан: 2 раз
Размер: 4.01 GB
terms.php



Быстрый ответ

Имя:

      
Для отправки сообщений необходимо включить JavaScript
Показать сообщения:    

Текущее время: 04-Дек 00:54

Часовой пояс: UTC + 3


Вы можете начинать темы
Вы можете отвечать на сообщения
Вы не можете редактировать свои сообщения
Вы не можете удалять свои сообщения
Вы не можете голосовать в опросах
Вы не можете прикреплять файлы к сообщениям
Вы можете скачивать файлы