Игра в бисер с Игорем Волгиным (Андрей Туринов) [2014 - 2015, Ток-шоу, DVB] Обновлено 27.05.2015


Статистика раздачи [Обновить пиров]
Размер:  23.36 GB   |    Зарегистрирован:  1 год 1 месяц   |    Скачан:  1 раз

Полного источника не было: 17 дней

 
   
 
 
 

[Цитировать]

Игра в бисер с Игорем Волгиным
Дата/Год выпуска: 2014 - 2015
Страна: Россия
Жанр: Ток-шоу
Продолжительность: ~ по 00:39:00 выпуск
Перевод: Не требуется
Режиссер: Андрей Туринов
Телеканал: канал Россия Культура
Описание: Ведущий ток-шоу Игорь Волгин приглашает поучастовать в своеобразной игре для всех, кто воспринимает мировую литературу как уже написанную книгу, которую никто и никогда не постигнет до конца, и, тем не менее, каждое новое прочтение удивительно.
Когда мы говорим, что классика всегда современна, мы не задумываемся, что именно в созданном десятилетия, а то и века назад художественном произведении созвучно дню сегодняшнему, представлению современного человека о себе самом. Участники ток-шоу "Игра в бисер" с Игорем Волгиным пытаются найти ответы на этот вопрос и, заглянув в лучшие образцы мировой литературы, понять - кто мы и что мы.
Доп. информация: Все раздачи программы Игра в бисер с Игорем Волгиным
качество: DVB
формат: MPG
Видео: MPEG-PS, 768@720x576, 4:3, 2965 kbps, 0.286 bit/pixel, 25 fps
Аудио: MPEG-1 Layer 2, 48000Hz 2 chanal

Список выпусков/серий

2014-09-02. Марк Твен - Приключения Тома Сойера
2014-09-09. Варлам Шаламов - Колымские рассказы
2014-09-16. Апулей. - Метаморфозы, или Золотой осел
2014-09-30. Александр Сухово-Кобылин - Дело
2014-10-14. Михаил Лермонтов - Лирика
2014-10-21. Николай Эрдман - Самоубийца
2014-11-18. В.В.Розанов - Уединенная проза
2014-12-02. Н.А. Островский - Как закалялась сталь
2014-12-09. Рэй Брэдбери - Марсианские хроники
2014-12-16. Умберто Эко - Имя розы
2014-12-23. Николай Заболоцкий - Лирика
2015-01-20. Евгений Евтушенко - Лирика
2015-01-27. Аркадий и Борис Стругацкие - Трудно быть Богом
2015-02-03. Л.Н. Толстой - Севастопольские рассказы
2015-02-17. Ф.М. Достоевский - Преступление и наказание
2015-03-03. Ги де Мопассан - Милый друг
2015-03-24. А.С. Пушкин - Капитанская дочка
2015-03-31. Н.В. Гоголь - Женитьба
2015-04-14. Л. Кэрролл - Алиса в Стране Чудес
2015-04-21. А.И. Куприн. - Поединок
2015-04-28. Даниэль Дефо - Робинзон Крузо
2015-05-05. Поэты, павшие на Великой Отечественной войне. Павел Коган, Николай Майоров, Михаил Кульчицкий
2015-05-12. М.А. Булгаков - Белая Гвардия
2015-05-19. Эрнест Хемингуэй - Старик и море
2015-05-26. Александр Вампилов - Старший сын

MediaInfo

ОбщееПолное имя : D:\Игра в бисер c Игорем Волгиным. Сезон 2014-2015\2014-09-02. Марк Твен - Приключения Тома Сойера.mpgФормат : MPEG-PSРазмер файла : 897 МбайтПродолжительность : 38 м.Режим общего битрейта : ПеременныйОбщий поток : 3221 Кбит/секБиблиотека кодирования : (c) 1998-2009 Womble Multimedia, Inc. / MPEG Video Wizard (03/2009) / Jun 24 2009
ВидеоИдентификатор : 224 (0xE0)Формат : MPEG VideoВерсия формата : Version 2Профиль формата : Main@MainПараметр BVOP формата : ДаПараметр матрицы формата : ВыборочнаяПараметр GOP формата : VariableПродолжительность : 38 м.Вид битрейта : ПеременныйБитрейт : 2965 Кбит/секМаксимальный битрейт : 15,0 Мбит/секШирина : 720 пикселейВысота : 576 пикселейСоотношение сторон : 4:3Частота кадров : 25,000 кадров/секСтандарт вещания : PALЦветовое пространство : YUVСубдискретизация насыщенности : 4:2:0Битовая глубина : 8 битТип развёртки : ЧересстрочнаяПорядок развёртки : Верхнее поле первоеМетод сжатия : С потерямиБит/(Пиксели*Кадры) : 0.286Временной код первого кадра : 00:00:00:00Оригинал временного кода : Group of pictures headerРазмер потока : 826 Мбайт (92%)Библиотека кодирования : (c) 1998-2009 Womble Multimedia, Inc. / MPEG Video Wizard (03/2009) / Jun 24 2009
АудиоИдентификатор : 192 (0xC0)Формат : MPEG AudioВерсия формата : Version 1Профиль формата : Layer 2Продолжительность : 38 м.Вид битрейта : ПостоянныйБитрейт : 192 Кбит/секКаналы : 2 каналаЧастота : 48,0 КГцМетод сжатия : С потерямиРазмер потока : 53,5 Мбайт (6%)

Скриншоты

[teatrix.ru].t8909.torrent 
Торрент: Зарегистрирован [ 2015-10-18 08:55 ] · 516678F1C0B9E2B5972FA14C933F0D93FDC86FA1

Скачать .torrent

Скачать

120 KB

Статус: проверено
Скачан: 1 раз
Размер: 23.36 GB
terms.php



Быстрый ответ

Имя:

      
Для отправки сообщений необходимо включить JavaScript
Показать сообщения:    

Текущее время: 08-Дек 21:11

Часовой пояс: UTC + 3


Вы можете начинать темы
Вы можете отвечать на сообщения
Вы не можете редактировать свои сообщения
Вы не можете удалять свои сообщения
Вы не можете голосовать в опросах
Вы не можете прикреплять файлы к сообщениям
Вы можете скачивать файлы