Приют комедиантов. Весеннее обострение (Сергей Варновский) [01.05.2015, ТВ-передача, театр, искусство, WEBRip]


Статистика раздачи [Обновить пиров]
Размер:  1.03 GB   |    Зарегистрирован:  1 год 1 месяц   |    Скачан:  0 раз

Полного источника не было: Никогда

 
   
 
 
 

[Цитировать]

Приют комедиантов. Весеннее обострение
Дата/Год выпуска: 01.05.2015
Страна: Ролссия, ТВЦ
Жанр: ТВ-передача, театр, искусство
Продолжительность: 01:29:58
Перевод: Не требуется
Русские субтитры: нет
Режиссер: Сергей Варновский
Ведущие: Екатерина Уфимцева, Михаил Швыдкой
Описание: Вот и настала весна, а с ней пришли весеннее настроение, весенние приключения и весенние обольщения. Общеизвестно, что весна – пора надежд, любви, всего самого лучшего и прекрасного! Но иногда это ещё и период разных обострений. А поскольку творческие люди – народ особенный, на них эти обострения очень сильно сказываются...
качество: WEBRip
формат: AVI
Видео: 704x400 (1.76:1), 25 fps, XviD build 50 ~1499 kbps avg, 0.21 bit/pixel
Аудио: 48 kHz, MPEG Layer 3, 2 ch, ~128.00 kbps avg

MediaInfo

Complete name : C:\Users\Home\Desktop\временная\Приют комедиантов.Весеннее обострение.2015.WEBRip.aviFormat : AVIFormat/Info : Audio Video InterleaveFile size : 1.03 GiBDuration : 1h 29mnOverall bit rate : 1 638 KbpsWriting application : VirtualDubMod 1.5.10.3 | www.virtualdub-fr.org || (build 2550/release)Writing library : VirtualDubMod build 2550/release
VideoID : 0Format : MPEG-4 VisualFormat profile : Advanced Simple@L5Format settings, BVOP : 2Format settings, QPel : NoFormat settings, GMC : No warppointsFormat settings, Matrix : Default (MPEG)Codec ID : XVIDCodec ID/Hint : XviDDuration : 1h 29mnBit rate : 1 500 KbpsWidth : 704 pixelsHeight : 400 pixelsDisplay aspect ratio : 16:9Frame rate : 25.000 fpsColor space : YUVChroma subsampling : 4:2:0Bit depth : 8 bitsScan type : ProgressiveCompression mode : LossyBits/(Pixel*Frame) : 0.213Stream size : 965 MiB (92%)Writing library : XviD 1.2.1 (UTC 2008-12-04)
AudioID : 1Format : MPEG AudioFormat version : Version 1Format profile : Layer 3Codec ID : 55Codec ID/Hint : MP3Duration : 1h 29mnBit rate mode : ConstantBit rate : 128 KbpsChannel count : 2 channelsSampling rate : 48.0 KHzCompression mode : LossyStream size : 82.4 MiB (8%)Alignment : Aligned on interleavesInterleave, duration : 40 ms (1.00 video frame)Interleave, preload duration : 504 msWriting library : LAME3.99rEncoding settings : -m s -V 4 -q 2 -lowpass 17 -b 128

Скриншоты

[teatrix.ru].t8910.torrent 
Торрент: Зарегистрирован [ 2015-10-18 08:55 ] · F631D0FBC05059298A03BC19B6988FBC848F52AC

Скачать .torrent

Скачать

21 KB

Статус: проверено
Скачан: 0 раз
Размер: 1.03 GB
terms.php



Быстрый ответ

Имя:

      
Для отправки сообщений необходимо включить JavaScript
Показать сообщения:    

Текущее время: 10-Дек 21:33

Часовой пояс: UTC + 3


Вы можете начинать темы
Вы можете отвечать на сообщения
Вы не можете редактировать свои сообщения
Вы не можете удалять свои сообщения
Вы не можете голосовать в опросах
Вы не можете прикреплять файлы к сообщениям
Вы можете скачивать файлы