Женский гений живописи (3 серии) / BBC / The Story of Women & Art (Джон Ходжсон / John Hodgson) [2014, документальный, живопись, познавательный, DVB]


Статистика раздачи [Обновить пиров]
Размер:  4.38 GB   |    Зарегистрирован:  1 год 1 месяц   |    Скачан:  1 раз

Полного источника не было: 7 месяцев 10 дней

Личеров:  1  [  0 KB/s  ]   Подробная статистика пиров
 
   
 
 
 

[Цитировать]

Женский гений живописи (3 серии)/ BBC / The Story of Women & Art
Дата/Год выпуска: 2014
Страна: Великобритания
Жанр: документальный, познавательный, живопись
Продолжительность: 3 серии по ~00:59:00
Перевод: Профессиональный (многоголосый закадровый)
Доп. инфо о переводе: SDI Media
Русские субтитры: нет
Оригинальная аудиодорожка: русский
Режиссер: Джон Ходжсон / John Hodgson
Телеканал: Viasat History
Описание: Профессор - историк Аманда Викери (Queen Mary University Of London) расскажет удивительные истории о талантливых женщинах, которые превзошли обстоятельства непреодолимой силы ради того, чтобы посвятить себя искусству. Сначала она расскажет о художницах эпохи Ренессанса, в частности об итальянской художнице Лавинии Фонтана, одной из немногих женщин, чьи работы находятся в галерее Уффици. Затем вместе с Амандой мы перенесемся в XVIII век и узнаем о французской художнице Элизабет Виже-Лебрен, которая имела огромный успех и создала более тысячи картин, находясь под патронатом самой Марии-Антуанетты. Далее Аманда Викери расскажет о том, как в XX веке женщины наравне с мужчинами начинают обучаться в художественных академиях. В программу также включено интервью с известной британской художницей Трейси Эмин. Кроме произведений искусства в передаче представлено огромное количество исторических документов и материалов из музеев и архивов Великобритании.
Сэмпл 1: http://sendfile.su/1111225
Сэмпл 2: http://sendfile.su/1111230
качество: DVB
формат: MPG
Видео: Video: MPEG2 Video 704x576 (16:9) 25fps [V: mpeg2 main, yuv420p, 704x576]
Аудио: Audio: MPEG Audio 48000Hz stereo 192kbps [A: mp2, 48000 Hz, stereo, 192 kb

Список выпусков/серий

1 серия:
Профессор Аманда Викери отправляется в Италию, а затем в Нидерланды, чтобы подробнее узнать о женщинах-художницах эпохи Ренессанса.
2 серия:
Профессор Аманда Викери расскажет о женщинах-художницах 18-го века, обратив особое внимание на индустриальную революцию в Великобритании и на двор Марии-Антуанетты.
3 серия:
Профессор Аманда Викери расскажет о новых возможностях, которые получили женщины в XX веке. Это было время, когда западные художницы перешли границы дозволенного в искусстве.

MediaInfo

GeneralComplete name : F:\Живопись\Женский гений живописи\1. Женский гений живописи 0001.mpgFormat : MPEG-PSFile size : 1.46 GiBDuration : 59mn 22sOverall bit rate mode : VariableOverall bit rate : 3 512 Kbps
VideoID : 224 (0xE0)Format : MPEG VideoFormat version : Version 2Format profile : Main@MainFormat settings, BVOP : NoFormat settings, Matrix : CustomFormat settings, GOP : VariableDuration : 59mn 22sBit rate mode : VariableBit rate : 3 250 KbpsMaximum bit rate : 15.0 MbpsWidth : 704 pixelsHeight : 576 pixelsDisplay aspect ratio : 16:9Frame rate : 25.000 fpsStandard : PALColor space : YUVChroma subsampling : 4:2:0Bit depth : 8 bitsScan type : InterlacedScan order : Top Field FirstCompression mode : LossyBits/(Pixel*Frame) : 0.321Time code of first frame : 00:00:00:00Time code source : Group of pictures headerStream size : 1.35 GiB (93%)
AudioID : 192 (0xC0)Format : MPEG AudioFormat version : Version 1Format profile : Layer 2Duration : 59mn 22sBit rate mode : ConstantBit rate : 192 KbpsChannel(s) : 2 channelsSampling rate : 48.0 KHzCompression mode : LossyDelay relative to video : 24msStream size : 81.5 MiB (5%)
[teatrix.ru].t8911.torrent 
Торрент: Зарегистрирован [ 2015-10-18 08:55 ] · 702B9ACC61B817292D139EA99E45CCEE8E1A7669

Скачать .torrent

Скачать

23 KB

Статус: проверено
Скачан: 1 раз
Размер: 4.38 GB
terms.php



Быстрый ответ

Имя:

      
Для отправки сообщений необходимо включить JavaScript
Показать сообщения:    

Текущее время: 11-Дек 07:16

Часовой пояс: UTC + 3


Вы можете начинать темы
Вы можете отвечать на сообщения
Вы не можете редактировать свои сообщения
Вы не можете удалять свои сообщения
Вы не можете голосовать в опросах
Вы не можете прикреплять файлы к сообщениям
Вы можете скачивать файлы