Охотники за мифами / Myth Hunters / Raiders Of The Lost Past [сезон 3 серии 1-13 из 13] (Джерри Помрой / Gerry Pomeroy) [2014, Документальный, история, исследования, SATRip]


Статистика раздачи [Обновить пиров]
Размер:  9.06 GB   |    Зарегистрирован:  1 год 1 месяц   |    Скачан:  0 раз

Полного источника не было: Никогда

 
   
 
 
 

[Цитировать]

Охотники за мифами / Myth Hunters / Raiders Of The Lost Past
Дата/Год выпуска: 2014
Страна: Великобритания
Производство: WMR Productions
Жанр: Документальный, постановочный, история
Продолжительность: 13х ~ 00:49:50
Перевод: Одноголосый закадровый
Доп. инфо о переводе: "SDI Media" Перевод А. Иванчикова Текст читал Роман Антанович
Русские субтитры: нет
Режиссер: Джерри Померой / Gerry Pomeroy
Телеканал: Viasat History
качество: SATRip
формат: AVI
Видео: XviD 720x400 25.00fps 1800 Kbps
Аудио: AC3 2ch, 48kHz, 192 kbps
Sempl video
Описание: В новом сезоне мы отправимся вслед за бесстрашными и одержимыми искателями затерянных сокровищ, целиком посвятившими себя поиску следов утраченного прошлого. Каждый эпизод повествует об увлекательных открытиях: затерянных сокровищах инков, кораблях, которые оказались в пустыне, Святом Граале, платке, который святая Вероника подала Иисусу Христу, когда он нёс крест на Голгофу. Для большинства из нас эти сокровища являются лишь фантазией киносценаристов и писателей. Однако мы расскажем о людях, которые искренне верят в то, что эти сокровища действительно существуют, и готовы пойти на все, чтобы это доказать.
Список выпусков/серий:

01. Пиратские сокровища острова Кокос / The Pirate Treasure of Cocos Island

В этой серии рассказывается об Августе Гисслере, который провел семнадцать лет в поисках пиратских сокровищ на острове Кокос.

02. Tайна паучьих камней / The Mystery of The Spider Rocks

Согласно легенде, где-то в Техасе затеряно золото испанцев. В начале 20-го века Дэйв Арнольд отправляется на поиски несметных сокровищ.

03. Золото Ямаситы / Yamashita's Gold

В этой серии рассказывается о юноше бедняке, который опередил самого президента Филиппин Фердинанда, и первым нашел сокровища, украденные японцами во время Второй мировой войны.

04. Платок Вероники / The Veil of Veronica

Журналист Пол Бад отправляется на поиски вуали, на которой запечатлено нерукотворное изображение Иисуса Христа.

05. Поиск Мачу-Пикчу / The Search For Machu Picchu

Необыкновенная история об удивительной находке американского археолога Хайрама Бингеме, открывшего затерянный город инков - Мачу-Пикчу.

06. Возлюбленная священника и Святой Грааль / The Priest, His Lover and the Holy Grail

Французская деревенька Рен-ле-Шато привлекала внимание искателей сокровищ на протяжении последних 70 лет, так как считается, что священник Беранже Соньер обнаружил там несметные богатства.

07. Затонувший корабль в пустыне Мохаве / The Lost Ship of the Mojave Desert

Рассказ о золотоискателе, который рискует всем ради легендарных сокровищ, затерянных в пустыне Мохаве.

08. Поиск золота нацистов / The Search For Nazi Gold

В конце войны нацисты отчаянно пытались спрятать награбленное золото. Многие до сих пор считают, что сокровища погребены на дне австрийского озера Топлиц.

09. Тайна сокровищ Томаса Биля / The Mystery of Thomas Beale's Treasure

Клейтон Харт посвятил свою жизнь попытке расшифровать коды, которые должны указать местонахождение несметных сокровищ.

10. В поисках Камелота / The Quest For Camelot

После пяти лет археологических раскопок Лесли Алкок заявил, что нашел Камелот в восточной части Англии, и якобы, даже зал, где находился Круглый стол.

11. Первооткрыватели Майя / The Men Who Found The Maya

Невероятный рассказ о двух путешественниках, которые обнаружили одну из самых удивительных цивилизаций в истории человечества – Майя.

12. Проклятье Горы сокровищ / The Curse of Treasure Mountain

В этой серии рассказывается о нескольких поколениях одной семьи, которые на протяжении многих лет разыскивали сокровища, якобы, спрятанные где-то в Скалистых горах.

13. Чаша Веленсии / The Chalice Of Valencia

Историк Джанис Беннетт отправляется в кафедральный собор Валенсии на поиски Святого Грааля, который якобы признан подлинным самим Ватиканом.

MediaInfo

Format : AVIFormat/Info : Audio Video InterleaveFile size : 711 MiBDuration : 49mn 49sOverall bit rate : 1 994 KbpsWriting application : TMPGEnc Video Mastering Works 5 Version. 5.0.6.38Writing library : TMPGEnc Video Mastering Works 5 Version. 5.0.6.38
VideoID : 0Format : MPEG-4 VisualFormat profile : Advanced Simple@L5Format settings, BVOP : 2Format settings, QPel : NoFormat settings, GMC : No warppointsFormat settings, Matrix : Default (H.263)Muxing mode : Packed bitstreamCodec ID : XVIDCodec ID/Hint : XviDDuration : 49mn 49sBit rate : 1 794 KbpsWidth : 704 pixelsHeight : 400 pixelsDisplay aspect ratio : 16:9Frame rate : 25.000 fpsColor space : YUVChroma subsampling : 4:2:0Bit depth : 8 bitsScan type : ProgressiveCompression mode : LossyBits/(Pixel*Frame) : 0.255Stream size : 640 MiB (90%)Writing library : XviD 73
AudioID : 1Format : AC-3Format/Info : Audio Coding 3Mode extension : CM (complete main)Format settings, Endianness : BigCodec ID : 2000Duration : 49mn 49sBit rate mode : ConstantBit rate : 192 KbpsChannel(s) : 2 channelsChannel positions : Front: L RSampling rate : 48.0 KHzBit depth : 16 bitsCompression mode : LossyStream size : 68.4 MiB (10%)Alignment : Aligned on interleavesInterleave, duration : 240 ms (6.00 video frames)Interleave, preload duration : 224 ms

Скриншоты


Внимание:

Раздача ведётся путём добавления новых серий; при каждом добавлении создаётся новый торрент. Чтобы начать докачку новой серии, пользователям необходимо сделать следующее:
- Остановить скачивание.
- Удалить старый торрент у себя из клиента (старые серии удалять не надо).
- Скачать новый торрент и запустить его у себя в клиенте вместо старого, при этом указать клиенту путь в старую папку куда и должно происходить скачивание новых серий.
Автор рипа NskorpionNДобавлена серия 13. Чаша Веленсии / The Chalice Of Valencia
[teatrix.ru].t8912.torrent 
Торрент: Зарегистрирован [ 2015-10-18 08:55 ] · 38A6086F7BB7DDC0D240D2580B0E208DDED24FAD

Скачать .torrent

Скачать

47 KB

Статус: проверено
Скачан: 0 раз
Размер: 9.06 GB
terms.php



Быстрый ответ

Имя:

      
Для отправки сообщений необходимо включить JavaScript
Показать сообщения:    

Текущее время: 07-Дек 17:24

Часовой пояс: UTC + 3


Вы можете начинать темы
Вы можете отвечать на сообщения
Вы не можете редактировать свои сообщения
Вы не можете удалять свои сообщения
Вы не можете голосовать в опросах
Вы не можете прикреплять файлы к сообщениям
Вы можете скачивать файлы