Винсент Ван Гог. Живопись в словах / Ван Гог: Портрет, написанный словами / Vincent Van Gogh: Painted with Words (Эндрю Хаттон / Andrew Hutton) [2010, документально-игровой, биографический искусство, DVB] [телеверсия] VO (Ред Медиа)


Статистика раздачи [Обновить пиров]
Размер:  908 MB   |    Зарегистрирован:  1 год 1 месяц   |    Скачан:  0 раз

Полного источника не было: Никогда

 
   
 
 
 

[Цитировать]

Винсент Ван Гог. Живопись в словах
Vincent Van Gogh. Painted with Words- Дата/Год выпуска: 2010
Страна: Великобритания
Жанр: документально-игровой, биографический искусство
Продолжительность: 00:50:00
Перевод: Студийный (одноголосый закадровый)
Доп. инфо о переводе: ТПО "Ред Медиа"
Русские субтитры: нет
Режиссер: Эндрю Хаттон / Andrew Hutton
Телеканал: 365 днейВ ролях: Бенедикт Камбербэтч / Benedict Cumberbatch (Vincent Van Gogh), Джейми Паркер / Jamie Parker (Theo Van Gogh), Эйдан Макардл / Aidan McArdle (Paul Gauguin), Дэниел Вейман / Daniel Weyman (Anthon Van Rappard)
Описание: Он начал карьеру в торговой фирме, но был уволен. Тогда он решил, что хочет стать учителем, но не мог найти постоянную работу. Затем он учился, чтобы стать священником, но провалил экзамены. У него не удавалось ничего, за что бы он ни брался, пока не начал рисовать эскизы. Фильм о жизни и творчестве Винсента Ван Гога, основанный на его письмах к своему младшему брату Теодору.
Доп. информация: DVB-S. В отличие от имеющегося на трекере TVRip с любительским одноголосым переводом, здесь – профессиональный одноголосый перевод ТПО "Ред Медиа", но сокращенная телеверсия.
Награда Banff Rockie Award на Banff Television Festival 2011 за лучшую передачу по искусству.

качество: DVB
формат: MKV
Видео: MPEG Video 2, 720x576@768x576 (4:3), 25 fps, ~2296 kbps avg, 0.221 bit/pixel
Аудио: MPEG Audio 2, 2 ch, 48 kHz, ~192.00 kbps avg

MediaInfo

ОбщееУникальный идентификатор : 236798049696860005034118829369610172748 (0xB225A53D6A3AF2C280D5DD0A0CE7794C)Полное имя : E:\My Torrents 2\[apreder]Vincent_van_Gogh_Painted_with_Words(2010)DVB.mkvФормат : MatroskaВерсия формата : Version 2Размер файла : 908 МбайтПродолжительность : 50 м.Режим общего битрейта : ПеременныйОбщий поток : 2539 Кбит/секДата кодирования : UTC 2015-03-15 16:33:42Программа кодирования : mkvmerge v7.7.0 ('Six Voices') 64bit built on Feb 28 2015 23:39:33Библиотека кодирования : libebml v1.3.1 + libmatroska v1.4.2
ВидеоИдентификатор : 1Формат : MPEG VideoВерсия формата : Version 2Профиль формата : Main@MainПараметр BVOP формата : ДаПараметр матрицы формата : ВыборочнаяПараметр GOP формата : M=3, N=36Format_Settings_PictureStructure : FrameИдентификатор кодека : V_MPEG2Идентификатор кодека/Информация : MPEG 1 or 2 VideoПродолжительность : 50 м.Вид битрейта : ПеременныйБитрейт : 2296 Кбит/секШирина : 720 пикселейВысота : 576 пикселейСоотношение сторон : 4:3Режим частоты кадров : ПостоянныйЧастота кадров : 25,000 кадров/секСтандарт вещания : PALЦветовое пространство : YUVСубдискретизация насыщенности : 4:2:0Битовая глубина : 8 битТип развёртки : ЧересстрочнаяПорядок развёртки : Верхнее поле первоеМетод сжатия : С потерямиБит/(Пиксели*Кадры) : 0.221Временной код первого кадра : 00:00:00:00Оригинал временного кода : Group of pictures headerРазмер потока : 821 Мбайт (90%)Default : ДаForced : НетGop_OpenClosed_FirstFrame : Closed
АудиоИдентификатор : 2Формат : MPEG AudioВерсия формата : Version 1Профиль формата : Layer 2Идентификатор кодека : A_MPEG/L2Идентификатор кодека/Подсказка : MP2Продолжительность : 50 м.Вид битрейта : ПостоянныйБитрейт : 192 Кбит/секКаналы : 2 каналаЧастота : 48,0 КГцМетод сжатия : С потерямиРазмер потока : 68,7 Мбайт (8%)Язык : RussianDefault : ДаForced : Нет

Скриншоты

Резервные скриншоты

-[2'170]
[teatrix.ru].t8913.torrent 
Торрент: Зарегистрирован [ 2015-10-18 08:55 ] · 884C7D5F2F08E6B832AFDAF4C97087A320235827

Скачать .torrent

Скачать

18 KB

Статус: проверено
Скачан: 0 раз
Размер: 908 MB
terms.php



Быстрый ответ

Имя:

      
Для отправки сообщений необходимо включить JavaScript
Показать сообщения:    

Текущее время: 03-Дек 05:24

Часовой пояс: UTC + 3


Вы можете начинать темы
Вы можете отвечать на сообщения
Вы не можете редактировать свои сообщения
Вы не можете удалять свои сообщения
Вы не можете голосовать в опросах
Вы не можете прикреплять файлы к сообщениям
Вы можете скачивать файлы