Эдвард Радзинский. "Беседы с Сократом" [Культура 23.11.2013] (Андрей Торстенеен) [2013 г., Документальный, авторское ТВ, SATRip]


Статистика раздачи [Обновить пиров]
Размер:  1.75 GB   |    Зарегистрирован:  1 год 1 месяц   |    Скачан:  0 раз

Полного источника не было: Никогда

 
   
 
 
 

[Цитировать]

Эдвард Радзинский. "Беседы с Сократом"
Дата эфира: 23.11.2013
Год выпуска: 2013 г
Страна: Россия
Жанр: Документальный
Продолжительность: 2:17:43
Автор и исполнитель: Эдвард Радзинский
Режиссёр: Андрей Торстенеен
Перевод: Не требуется
Русские субтитры: нет
Производство: ГТРК "Культура"
Описание: Писатель, историк, драматург Эдвард Радзинский исполняет свою пьесу "Беседы с Сократом". Телеверсия вечера в ММДМ. 2 части.
Вечер состоялся в Театральном зале Московского международного Дома музыки 30 апреля 2013 года.


Качество:SATRip
Формат: AVI
Видео: 704x400 (1.77:1), 25 fps, XviD ~1587 kbps, 0.23 bit/pixel
Аудио: 48 kHz, MPEG Layer 3, 2 ch, ~224 kbps avg

MediaInfo:

Общее
Полное имя : G:\Torrents\Ehdvard_Radzinskij-Besedy_s_Sokratom.avi
Формат : AVI
Формат/Информация : Audio Video Interleave
Размер файла : 1,76 Гбайт
Продолжительность : 2 ч. 18 м.
Общий поток : 1821 Кбит/сек
Программа кодирования : VirtualDubMod 1.6.0.0 SURROUND (build 2560/release)
Библиотека кодирования : VirtualDubMod build 2560/release
Видео
Идентификатор : 0
Формат : MPEG-4 Visual
Профиль формата : Advanced Simple@L5
Параметр BVOP формата : 2
Параметр QPel формата : Нет
Параметр GMC формата : Без точки перехода
Параметр матрицы формата : Default (MPEG)
Идентификатор кодека : XVID
Идентификатор кодека/Подсказка : XviD
Продолжительность : 2 ч. 18 м.
Битрейт : 1587 Кбит/сек
Ширина : 704 пикселя
Высота : 400 пикселей
Соотношение сторон : 5:4
Соотношение сторон в оригинале : 16:9
Частота кадров : 25,000 кадров/сек
Цветовое пространство : YUV
Субдискретизация насыщенности : 4:2:0
Битовая глубина : 8 бит
Тип развёртки : Прогрессивная
Метод сжатия : С потерями
Бит/(Пиксели*Кадры) : 0.225
Размер потока : 1,53 Гбайт (87%)
Библиотека кодирования : XviD 1.2.1 (UTC 2008-12-04)
Аудио
Идентификатор : 1
Формат : MPEG Audio
Версия формата : Version 1
Профиль формата : Layer 3
Режим : Joint stereo
Идентификатор кодека : 55
Идентификатор кодека/Подсказка : MP3
Продолжительность : 2 ч. 18 м.
Вид битрейта : Постоянный
Битрейт : 224 Кбит/сек
Каналы : 2 канала
Частота : 48,0 КГц
Метод сжатия : С потерями
Размер потока : 221 Мбайт (12%)
Выравнивание : Разделение по промежуткам
Продолжительность промежутка : 40 мс. (1,00 видеокадр)
Время предзагрузки промежутка : 500 мс.

Скриншоты (превью, увеличение по клику):

На раздаче круглосуточно, ~20 Mb/s. > [Что от меня зависит, сделал. Остальное зависит от Вас, трекера и наших провайдеров.]
[teatrix.ru].t8915.torrent 
Торрент: Зарегистрирован [ 2015-10-18 08:55 ] · 0377BCD5FB742AEBF56BF97069CE1106CB0CF311

Скачать .torrent

Скачать

18 KB

Статус: проверено
Скачан: 0 раз
Размер: 1.75 GB
terms.php



Быстрый ответ

Имя:

      
Для отправки сообщений необходимо включить JavaScript
Показать сообщения:    

Текущее время: 07-Дек 19:20

Часовой пояс: UTC + 3


Вы можете начинать темы
Вы можете отвечать на сообщения
Вы не можете редактировать свои сообщения
Вы не можете удалять свои сообщения
Вы не можете голосовать в опросах
Вы не можете прикреплять файлы к сообщениям
Вы можете скачивать файлы