Искусство стран Бенилюкса / The High Art of the Low Countries (Йен Лиз / Ian Leese) [2012, документальный, история искусств, DVB] DVO (Ред Медиа)


Статистика раздачи [Обновить пиров]
Размер:  2.51 GB   |    Зарегистрирован:  1 год 1 месяц   |    Скачан:  2 раза

Полного источника не было: 2 месяца 24 дня

Личеров:  1  [  0 KB/s  ]   Подробная статистика пиров
 
   
 
 
 

[Цитировать]

Искусство стран Бенилюкса
The High Art of the Low Countries- Дата/Год выпуска: 2012
Страна: Великобритания
Жанр: документальный, история искусств
Продолжительность: 02:33:45 (00:51:56 + 00:51:13 + 00:50:36)
Перевод: Профессиональный (двухголосый закадровый)
Доп. инфо о переводе: ТПО "Ред Медиа"
Русские субтитры: нет
Режиссер: Йен Лиз / Ian Leese
Телеканал: 365 днейОписание: Сегодняшние страны Бенилюкса включают в себя три монархии: Бельгию, Нидерланды и Люксембург. Об искусстве этих стран пойдет речь в документальном фильме британских документалистов. Мы увидим картины Ван Эйка, Вермеера, Рубенса, Франса Хальса, Босха, Ван Гога, Мондриана и Магрита и узнаем историю их написания. Рассказ охватывает период от Ренессанса до наших дней.
Доп. информация: DVB-S

качество: DVB
формат: MKV
Видео: MPEG Video 2, 720x576@768x576 (4:3), 25 fps, ~2225 kbps avg, 0.215 bit/pixel
Аудио: MPEG Audio 2, 2 ch, 48 kHz, ~192.00 kbps avg

Список выпусков/серий

Эпизод 1: Мечта об изобилии / Dream of PlentyЭпизод 2: Расцвет и падение / Boom and BustЭпизод 3: Мечты и кошмары / Daydreams and Nightmares

MediaInfo

ОбщееУникальный идентификатор : 189380683334008322625922521774898997623 (0x8E796494946FF6B48E641CACCACEE977)Полное имя : E:\My Torrents 2\[apreder]The_High_Art_of_the_Low_Countries\01. Dream_of_Plenty(2012)DVB.mkvФормат : MatroskaВерсия формата : Version 2Размер файла : 916 МбайтПродолжительность : 51 м.Режим общего битрейта : ПеременныйОбщий поток : 2466 Кбит/секДата кодирования : UTC 2015-03-01 16:33:30Программа кодирования : mkvmerge v7.6.0 ('Garden of Dreams') 64bit built on Feb 8 2015 13:04:34Библиотека кодирования : libebml v1.3.1 + libmatroska v1.4.2
ВидеоИдентификатор : 1Формат : MPEG VideoВерсия формата : Version 2Профиль формата : Main@MainПараметр BVOP формата : ДаПараметр матрицы формата : ВыборочнаяПараметр GOP формата : VariableFormat_Settings_PictureStructure : FrameИдентификатор кодека : V_MPEG2Идентификатор кодека/Информация : MPEG 1 or 2 VideoПродолжительность : 51 м.Вид битрейта : ПеременныйБитрейт : 2225 Кбит/секШирина : 720 пикселейВысота : 576 пикселейСоотношение сторон : 4:3Режим частоты кадров : ПостоянныйЧастота кадров : 25,000 кадров/секСтандарт вещания : PALЦветовое пространство : YUVСубдискретизация насыщенности : 4:2:0Битовая глубина : 8 битТип развёртки : ЧересстрочнаяПорядок развёртки : Верхнее поле первоеМетод сжатия : С потерямиБит/(Пиксели*Кадры) : 0.215Временной код первого кадра : 00:00:00:00Оригинал временного кода : Group of pictures headerРазмер потока : 827 Мбайт (90%)Default : ДаForced : НетGop_OpenClosed_FirstFrame : Closed
АудиоИдентификатор : 2Формат : MPEG AudioВерсия формата : Version 1Профиль формата : Layer 2Идентификатор кодека : A_MPEG/L2Идентификатор кодека/Подсказка : MP2Продолжительность : 51 м.Вид битрейта : ПостоянныйБитрейт : 192 Кбит/секКаналы : 2 каналаЧастота : 48,0 КГцМетод сжатия : С потерямиРазмер потока : 71,3 Мбайт (8%)Язык : RussianDefault : ДаForced : Нет

Скриншоты


Резервные скриншоты


-[2'148]
[teatrix.ru].t8916.torrent 
Торрент: Зарегистрирован [ 2015-10-18 08:55 ] · 1DB77F12EE1032F0A59A709678B95F26E2073A49

Скачать .torrent

Скачать

13 KB

Статус: проверено
Скачан: 2 раз
Размер: 2.51 GB
terms.php



Быстрый ответ

Имя:

      
Для отправки сообщений необходимо включить JavaScript
Показать сообщения:    

Текущее время: 10-Дек 08:01

Часовой пояс: UTC + 3


Вы можете начинать темы
Вы можете отвечать на сообщения
Вы не можете редактировать свои сообщения
Вы не можете удалять свои сообщения
Вы не можете голосовать в опросах
Вы не можете прикреплять файлы к сообщениям
Вы можете скачивать файлы