Проклятие Моны Лизы / The Mona Lisa Curse (Менди Чанг / Mandy Chang) [2008, документальный, исскуство, DVB-AVC]


Статистика раздачи [Обновить пиров]
Размер:  996 MB   |    Зарегистрирован:  1 год 1 месяц   |    Скачан:  0 раз

Полного источника не было: Никогда

 
   
 
 
 

[Цитировать]

Проклятие Моны Лизы / The Mona Lisa Curse
Год выпуска: 2008
Страна: Великобритания
Жанр: документальный, исскуство
Продолжительность: 00:49:36
Перевод: Профессиональный (многоголосый закадровый)
Доп. инфо о переводе: Культура
Русские субтитры: есть
Формат субтитров: softsub (в составе контейнера)
Режиссер: Менди Чанг / Mandy Chang
Описание: Одна из особенностей западного искусства сегодня: массовость и доступность произведений, которая затронула, в том числе, и такие шедевры как знаменитая "Мона Лиза" кисти Леонардо да Винчи. Другая характерная черта, связанная с тиражированием великих шедевров прошлого, процесс тотальной коммерциализации искусства. Создатели фильма исследуют эти проблемы, а также выясняют, как повлиял бурный рост художественного рынка во второй половине ХХ века на развитие современного искусства.
Сэмпл: http://sendfile.su/1089726
Доп. информация:
Данное видео представляет собой прямую запись вещания мультиплекса РТРС-1 в стандарте DVB-T2. Монтаж программой VideoReDo TVSuite H.264 v4.21.6.674, ремукс MKVMerge
Если вы испытываете какие-либо проблемы с его просмотром (включая "эффект расчески" или низкое качество видео в сравнении со скриншотами), то можете использовать портативную версию VLC плеера как наиболее универсальное средство их решения.
Качество видео: DVB-AVC
Формат/Контейнер: MKV
Видео кодек: H.264
Аудио кодек: MP2
Видео поток: 720x576 (785:576) 50fps ~2500kbps
Аудио поток: 48000Hz 2ch mono 192kbps

MediaInfo

Format : MatroskaFormat version : Version 4 / Version 2File size : 996 MiBDuration : 49mn 35sOverall bit rate : 2 808 KbpsEncoded date : UTC 2015-02-25 12:43:18Writing application : mkvmerge v6.1.0 ('Old Devil') built on Mar 4 2013 09:10:42Writing library : libebml v1.3.0 + libmatroska v1.4.0
VideoID : 1Format : AVCFormat/Info : Advanced Video CodecFormat profile : Main@L3.0Format settings, CABAC : YesFormat settings, ReFrames : 3 framesCodec ID : V_MPEG4/ISO/AVCDuration : 49mn 35sBit rate : 2 560 KbpsWidth : 720 pixelsHeight : 576 pixelsDisplay aspect ratio : 4:3Original display aspect ratio : 4:3Frame rate mode : ConstantFrame rate : 25.000 fpsStandard : ComponentColor space : YUVChroma subsampling : 4:2:0Bit depth : 8 bitsScan type : InterlacedBits/(Pixel*Frame) : 0.247Stream size : 908 MiB (91%)Default : YesForced : No
AudioID : 2Format : MPEG AudioFormat version : Version 1Format profile : Layer 2Codec ID : A_MPEG/L2Codec ID/Hint : MP2Duration : 49mn 35sBit rate mode : ConstantBit rate : 192 KbpsChannel(s) : 2 channelsSampling rate : 48.0 KHzCompression mode : LossyStream size : 68.1 MiB (7%)Language : RussianDefault : YesForced : No
TextID : 3Format : UTF-8Codec ID : S_TEXT/UTF8Codec ID/Info : UTF-8 Plain TextLanguage : RussianDefault : NoForced : No

Скриншоты с учетом анаморфирования

Скриншоты

[teatrix.ru].t8917.torrent 
Торрент: Зарегистрирован [ 2015-10-18 08:55 ] · 40C7CB363683700A2E6033A4EB2F3AEC8E595DA9

Скачать .torrent

Скачать

20 KB

Статус: проверено
Скачан: 0 раз
Размер: 996 MB
terms.php



Быстрый ответ

Имя:

      
Для отправки сообщений необходимо включить JavaScript
Показать сообщения:    

Текущее время: 10-Дек 17:45

Часовой пояс: UTC + 3


Вы можете начинать темы
Вы можете отвечать на сообщения
Вы не можете редактировать свои сообщения
Вы не можете удалять свои сообщения
Вы не можете голосовать в опросах
Вы не можете прикреплять файлы к сообщениям
Вы можете скачивать файлы