Леонардо. Шедевры и подделки (Екатерина Вейс) [2014, история исскуств, DVB-AVC]


Статистика раздачи [Обновить пиров]
Размер:  831 MB   |    Зарегистрирован:  1 год 1 месяц   |    Скачан:  0 раз

Полного источника не было: Никогда

 
   
 
 
 

[Цитировать]

Леонардо. Шедевры и подделки
Год выпуска: 2014
Страна: Россия
Жанр: история исскуств
Продолжительность: 00:38:36
Субтитры: Teletext Subtitle (888 страница)
Режиссер: Екатерина Вейс
Описание: Никто из художников эпохи Возрождения не имеет столько имитаций, копий картин, как Леонардо да Винчи. Миру известно около 17 шедевров художника, но сколько из них действительно принадлежит кисти Мастера? Неожиданные появления, казалось бы, навсегда утраченных оригиналов, как это случилось с картиной "Спаситель Мира", некогда проданной всего за 45 фунтов стерлингов, еще больше придают таинственности наследию гения Ренессанса.
В фильме принимают участие: Роберт Саймон, искусствовед, Нью-Йорк; Виктория Маркова, доктор искусствоведения; Вадим Садков, доктор искусствоведения; Вера Дажина, доктор искусствоведения; Марина Свидерская, доктор искусствоведения.
Сэмпл: https://www.sendspace.com/file/cgobcn
качество: DVB-AVC (DVB-T2)
формат: TS/M2TS
Видео: H264 720x576 (4:3) 25fps ~2500 fps
Аудио: mp2 48000Hz 2ch mono 192k

MediaInfo

Format : MPEG-TSFile size : 831 MiBDuration : 38mn 35sOverall bit rate mode : VariableOverall bit rate : 3 011 Kbps
VideoID : 1061 (0x425)Menu ID : 1 (0x1)Format : AVCFormat/Info : Advanced Video CodecFormat profile : Main@L3.0Format settings, CABAC : YesFormat settings, ReFrames : 3 framesCodec ID : 27Duration : 38mn 35sBit rate : 2 668 KbpsWidth : 720 pixelsHeight : 576 pixelsDisplay aspect ratio : 4:3Frame rate : 25.000 fpsStandard : ComponentColor space : YUVChroma subsampling : 4:2:0Bit depth : 8 bitsScan type : InterlacedBits/(Pixel*Frame) : 0.257Stream size : 737 MiB (89%)
AudioID : 1062 (0x426)Menu ID : 1 (0x1)Format : MPEG AudioFormat version : Version 1Format profile : Layer 2Codec ID : 3Duration : 38mn 35sBit rate mode : ConstantBit rate : 192 KbpsChannel(s) : 2 channelsSampling rate : 48.0 KHzCompression mode : LossyStream size : 53.0 MiB (6%)Language : English
TextID : 1064 (0x428)-100Menu ID : 1 (0x1)Format : Teletext SubtitleLanguage : Russian
MenuID : 1060 (0x424)Menu ID : 1 (0x1)Duration : 38mn 35sList : 1061 (0x425) (AVC) / 1062 (0x426) (MPEG Audio, English) / 1064 (0x428) ()Language : / English

Скриншоты

[teatrix.ru].t8919.torrent 
Торрент: Зарегистрирован [ 2015-10-18 08:55 ] · E1F19F669DE93C12EB3492AF2829B051C7F52087

Скачать .torrent

Скачать

17 KB

Статус: проверено
Скачан: 0 раз
Размер: 831 MB
terms.php



Быстрый ответ

Имя:

      
Для отправки сообщений необходимо включить JavaScript
Показать сообщения:    

Текущее время: 06-Дек 21:00

Часовой пояс: UTC + 3


Вы можете начинать темы
Вы можете отвечать на сообщения
Вы не можете редактировать свои сообщения
Вы не можете удалять свои сообщения
Вы не можете голосовать в опросах
Вы не можете прикреплять файлы к сообщениям
Вы можете скачивать файлы