Музыка в эфире: Галина Вишневская. О любви (Главная редакция музыкальных программ) [1993, документальный, DVB] [фрагменты передачи]


Статистика раздачи [Обновить пиров]
Размер:  1.08 GB   |    Зарегистрирован:  1 год 1 месяц   |    Скачан:  0 раз

Полного источника не было: 1 месяц 18 дней

 
   
 
 
 

[Цитировать]

Музыка в эфире
Галина Вишневская. О любви- Дата/Год выпуска: 1993
Страна: Россия
Жанр: документальный
Продолжительность: 00:34:04
Перевод: Не требуется
Русские субтитры: нет
Режиссер: Главная редакция музыкальных программ
Телеканал: НостальгияОписание: Галина Вишневская и Святослав Белза провели передачу с участием замечательных актеров и музыкантов. Так получилось, что на передаче присутствовало несколько супружеских пар: Елена Санаева и Ролан Быков, Вера Алентова и Владимир Меньшов, Татьяна Шмыга и Анатолий Кремер.
Но солировал на этой встрече Ролан Быков, говоривший в частности о значении этого слова "любовь". Бьют друг друга в кровь, говорят любовь. Умирают за один вздох любимой. Один из-за любви к родине стреляет в другого человека, который стоит против него тоже из-за любви к родине.
Когда говорят "Вера, Надежда, Любовь", наверное, говорят про любовь вселенскую. Я больше люблю любовь как чувство, признался Ролан Антонович. Любовь к женщине, к профессии, к Родине – это все чувства. Разные. У них разные механизмы и масса оттенков. Любовь только тогда любовь, когда ты вложил в нее это чувство. И она может стать ненавистью. "Топка" этого чувства – ты сам. Ты должен гореть… (анонс канала "Ностальгия")
Доп. информация: DVB-S

качество: DVB
формат: MKV
Видео: MPEG Video 2, 720x576@768x576 (4:3), 25 fps, ~4234 kbps avg, 0.408 bit/pixel
Аудио: MPEG Audio 2, 2 ch, 48 kHz, ~192.00 kbps avg

MediaInfo

ОбщееУникальный идентификатор : 244336805193059137349208824810114632685 (0xB7D18E952CAC735D8B9219888D1FCBED)Полное имя : E:\My Torrents 2\[apreder]Galina_Vishnevskaya_About_Love(1993)DVB.mkvФормат : MatroskaВерсия формата : Version 2Размер файла : 1,08 ГбайтПродолжительность : 34 м.Режим общего битрейта : ПеременныйОбщий поток : 4516 Кбит/секДата кодирования : UTC 2015-02-15 16:58:44Программа кодирования : mkvmerge v7.6.0 ('Garden of Dreams') 64bit built on Feb 8 2015 13:04:34Библиотека кодирования : libebml v1.3.1 + libmatroska v1.4.2
ВидеоИдентификатор : 1Формат : MPEG VideoВерсия формата : Version 2Профиль формата : Main@MainПараметр BVOP формата : ДаПараметр матрицы формата : ВыборочнаяПараметр GOP формата : VariableFormat_Settings_PictureStructure : FrameИдентификатор кодека : V_MPEG2Идентификатор кодека/Информация : MPEG 1 or 2 VideoПродолжительность : 34 м.Вид битрейта : ПеременныйБитрейт : 4234 Кбит/секШирина : 720 пикселейВысота : 576 пикселейСоотношение сторон : 4:3Режим частоты кадров : ПостоянныйЧастота кадров : 25,000 кадров/секСтандарт вещания : PALЦветовое пространство : YUVСубдискретизация насыщенности : 4:2:0Битовая глубина : 8 битТип развёртки : ЧересстрочнаяПорядок развёртки : Верхнее поле первоеМетод сжатия : С потерямиБит/(Пиксели*Кадры) : 0.408Временной код первого кадра : 00:00:00:00Оригинал временного кода : Group of pictures headerРазмер потока : 1,01 Гбайт (94%)Default : ДаForced : НетGop_OpenClosed_FirstFrame : Closed
АудиоИдентификатор : 2Формат : MPEG AudioВерсия формата : Version 1Профиль формата : Layer 2Идентификатор кодека : A_MPEG/L2Идентификатор кодека/Подсказка : MP2Продолжительность : 34 м.Вид битрейта : ПостоянныйБитрейт : 192 Кбит/секКаналы : 2 каналаЧастота : 48,0 КГцМетод сжатия : С потерямиРазмер потока : 46,8 Мбайт (4%)Язык : RussianDefault : ДаForced : Нет

Скриншоты

Резервные скриншоты

-[2'124]
[teatrix.ru].t8920.torrent 
Торрент: Зарегистрирован [ 2015-10-18 08:55 ] · 27AE0B32F1B8F958510A475C9B46BA81EBE2095F

Скачать .torrent

Скачать

11 KB

Статус: проверено
Скачан: 0 раз
Размер: 1.08 GB
terms.php



Быстрый ответ

Имя:

      
Для отправки сообщений необходимо включить JavaScript
Показать сообщения:    

Текущее время: 11-Дек 05:22

Часовой пояс: UTC + 3


Вы можете начинать темы
Вы можете отвечать на сообщения
Вы не можете редактировать свои сообщения
Вы не можете удалять свои сообщения
Вы не можете голосовать в опросах
Вы не можете прикреплять файлы к сообщениям
Вы можете скачивать файлы