Леонардо да Винчи. Реставрация века / Leonard de Vinci: la restauration du siecle (Стэн Ньюманн / Stan Neumann) [2012, документальный, история искусств, DVB] DVB (Ред Медиа)


Статистика раздачи [Обновить пиров]
Размер:  762 MB   |    Зарегистрирован:  1 год 1 месяц   |    Скачан:  0 раз

Полного источника не было: Никогда

 
   
 
 
 

[Цитировать]

Леонардо да Винчи. Реставрация века
Léonard de Vinci: la restauration du siècle- Дата/Год выпуска: 2012
Страна: Франция
Жанр: документальный, история искусств
Продолжительность: 00:55:07
Перевод: Профессиональный (двухголосый закадровый)
Доп. инфо о переводе: ТПО "Ред Медиа"
Русские субтитры: нет
Режиссер: Стэн Ньюманн / Stan Neumann
Телеканал: 365 днейОписание: Неоконченная картина Леонардо да Винчи "Святая Анна с Мадонной и младенцем Христом" – одна из самых красивых картин в мире и одна из самых загадочных. К тому же она плохо сохранилась и требовала немедленной реставрации. Процесс восстановления картины занял более трех лет. Рассказ об этом в фильме французских документалистов.-Британские реставраторы лондонской Национальной галереи (именно они работали с картиной) строго следуя своей британской методике, сняли слишком много лака и верхнего слоя красок и не провели тесты, которые показали бы, что используются слишком сильные растворители. На эти грубые ошибки указали два высокопоставленных французских эксперта в области живописи. Они заявили, что картина высветлена сверх меры, обвинили Лувр в некачественной реставрации "Святой Анны…" и в знак протеста вышли из состава Международного комитета по реставрации Лувра.-Доп. информация: DVB-S
качество: DVB
формат: MKV
Видео: MPEG Video 2, 720x576@768x576 (4:3), 25 fps, ~1701 kbps avg, 0.164 bit/pixel
Аудио: MPEG Audio 2, 2 ch, 48 kHz, ~192.00 kbps avg

MediaInfo

ОбщееУникальный идентификатор : 183203680987625297514565048282127556080 (0x89D3BED9FAC15D1EABBB7A4120905DF0)Полное имя : E:\My Torrents 2\[apreder]Leonard_de_Vinci_la_restauration_du_siecle(2012)DVB.mkvФормат : MatroskaВерсия формата : Version 2Размер файла : 762 МбайтПродолжительность : 55 м.Режим общего битрейта : ПеременныйОбщий поток : 1932 Кбит/секДата кодирования : UTC 2015-01-21 13:52:54Программа кодирования : mkvmerge v7.5.0 ('Glass Culture') 64bit built on Jan 4 2015 16:48:44Библиотека кодирования : libebml v1.3.1 + libmatroska v1.4.2
ВидеоИдентификатор : 1Формат : MPEG VideoВерсия формата : Version 2Профиль формата : Main@MainПараметр BVOP формата : ДаПараметр матрицы формата : ВыборочнаяПараметр GOP формата : VariableFormat_Settings_PictureStructure : FrameИдентификатор кодека : V_MPEG2Идентификатор кодека/Информация : MPEG 1 or 2 VideoПродолжительность : 55 м.Вид битрейта : ПеременныйБитрейт : 1701 Кбит/секШирина : 720 пикселейВысота : 576 пикселейСоотношение сторон : 4:3Режим частоты кадров : ПостоянныйЧастота кадров : 25,000 кадров/секСтандарт вещания : PALЦветовое пространство : YUVСубдискретизация насыщенности : 4:2:0Битовая глубина : 8 битТип развёртки : ЧересстрочнаяПорядок развёртки : Верхнее поле первоеМетод сжатия : С потерямиБит/(Пиксели*Кадры) : 0.164Временной код первого кадра : 00:00:00:00Оригинал временного кода : Group of pictures headerРазмер потока : 671 Мбайт (88%)Default : ДаForced : НетGop_OpenClosed_FirstFrame : Closed
АудиоИдентификатор : 2Формат : MPEG AudioВерсия формата : Version 1Профиль формата : Layer 2Идентификатор кодека : A_MPEG/L2Идентификатор кодека/Подсказка : MP2Продолжительность : 55 м.Вид битрейта : ПостоянныйБитрейт : 192 Кбит/секКаналы : 2 каналаЧастота : 48,0 КГцМетод сжатия : С потерямиРазмер потока : 75,7 Мбайт (10%)Язык : RussianDefault : ДаForced : Нет

Скриншоты

Резервные скриншоты

-[2'066]
[teatrix.ru].t8922.torrent 
Торрент: Зарегистрирован [ 2015-10-18 08:55 ] · BF80C287F64F13D1A11621BDBAB16C3A84654537

Скачать .torrent

Скачать

15 KB

Статус: проверено
Скачан: 0 раз
Размер: 762 MB
terms.php



Быстрый ответ

Имя:

      
Для отправки сообщений необходимо включить JavaScript
Показать сообщения:    

Текущее время: 11-Дек 07:09

Часовой пояс: UTC + 3


Вы можете начинать темы
Вы можете отвечать на сообщения
Вы не можете редактировать свои сообщения
Вы не можете удалять свои сообщения
Вы не можете голосовать в опросах
Вы не можете прикреплять файлы к сообщениям
Вы можете скачивать файлы