Метафора-Владимир Жбанов (Александр Анисимов) [Белоруссия, Республика Беларусь, 2006, Документальный, DVB]


Статистика раздачи [Обновить пиров]
Размер:  457 MB   |    Зарегистрирован:  1 год 1 месяц   |    Скачан:  0 раз

Полного источника не было: Никогда

Личеров:  2  [  0 KB/s  ]   Подробная статистика пиров
 
   
 
 
 

[Цитировать]

Метафора-Владимир Жбанов
Год выпуска: 2006
Страна: Республика Беларусь
Производство: Белорусский видеоцентр
Жанр: Документальный
Продолжительность: 00:25:03
Перевод: Не требуется
Режиссер: Александр Анисимов
Телеканал: Беларусь 3
Описание: Работы скульптора Владимира Жбанова известны жителям Беларуси, России и дальнего зарубежья. В Минске, на Комаровском рынке, дети до блеска отполировали седло бронзовой лошади, Михайловский сквер уже невозможно представить без дамы на скамейке, девочки с зонтиком и других работ. Казалось бы, недавно Минск, Могилев и другие города обходились без скульптур Жбанова, но уже подрастает целое поколение людей, для которых они – неотъемлемая частичка огромного города.
В картине представлены и скульптуры, находящиеся в данный момент в работе, потому что основной задачей авторов было не только рассказать о Жбанове, как скульпторе и человеке с трудной и интересной судьбой, прошедшем Афганистан, но и раскрыть смысл и корни творчества конкретного художника.
«Искусство художника обнажено до предела, склоняйте ваши головы перед художниками, не в каждом из них Бог, но каждый верит в музу и, словно зачарованный, идет к своему Олимпу. Обнимите себя сильнее, если вы верите в искусство и в тех, кто его творит…».
Доп. информация:
Сценарист: Иван Багура
Оператор: Михаил Бродский
Звукооператор: Александр Васюк
Диктор: Вячеслав Павлють
Редактор: Вера Гончарова
Директор: Елена Вашинко
Благодарность: исходник для данной раздачи, записан с цифрового наземного канала, т.е. DVB-Т
Запись потока *.ts с наземного цифрового телеканала "Беларусь 3"
Сэмпл: http://rusfolder.com/42673789
качество: DVB
формат: MPEG-TS
Видео: MPEG4 Video (H264) 720x576, 2168kbps
Аудио: MPEG Audio 48000Hz stereo 256kbps

Bitrate Viewer

MediaInfo

GeneralID : 1 (0x1)Complete name : D:\001 Документальный фильмы\Личности\Метафора-Владимир Жбанов (2006)\Метафора-Владимир Жбанов_2006.tsFormat : MPEG-TSFile size : 457 MiBDuration : 25mn 2sOverall bit rate mode : VariableOverall bit rate : 2 553 Kbps
VideoID : 801 (0x321)Menu ID : 1 (0x1)Format : AVCFormat/Info : Advanced Video CodecFormat profile : Main@L3.0Format settings, CABAC : YesFormat settings, ReFrames : 4 framesFormat settings, GOP : M=4, N=24Codec ID : 27Duration : 25mn 2sBit rate : 2 168 KbpsWidth : 720 pixelsHeight : 576 pixelsDisplay aspect ratio : 4:3Frame rate : 25.000 fpsStandard : PALColor space : YUVChroma subsampling : 4:2:0Bit depth : 8 bitsScan type : MBAFFScan order : Top Field FirstBits/(Pixel*Frame) : 0.209Stream size : 388 MiB (85%)Color primaries : BT.601 PALTransfer characteristics : BT.470 System B, BT.470 System GMatrix coefficients : BT.601Color range : Limited
AudioID : 802 (0x322)Menu ID : 1 (0x1)Format : MPEG AudioFormat version : Version 1Format profile : Layer 2Codec ID : 3Duration : 25mn 2sBit rate mode : ConstantBit rate : 256 KbpsChannel(s) : 2 channelsSampling rate : 48.0 KHzCompression mode : LossyStream size : 45.9 MiB (10%)Language : Russian
[teatrix.ru].t8923.torrent 
Торрент: Зарегистрирован [ 2015-10-18 08:55 ] · C8C45F0D9B683D6B86E84179DD032EAD21AB1982

Скачать .torrent

Скачать

18 KB

Статус: проверено
Скачан: 0 раз
Размер: 457 MB
terms.php



Быстрый ответ

Имя:

      
Для отправки сообщений необходимо включить JavaScript
Показать сообщения:    

Текущее время: 04-Дек 06:51

Часовой пояс: UTC + 3


Вы можете начинать темы
Вы можете отвечать на сообщения
Вы не можете редактировать свои сообщения
Вы не можете удалять свои сообщения
Вы не можете голосовать в опросах
Вы не можете прикреплять файлы к сообщениям
Вы можете скачивать файлы