Эрмитаж. Сокровища нации (Ника Стрижак) [2014, культурно-просветительский, HDTVRip]


Статистика раздачи [Обновить пиров]
Размер:  609 MB   |    Зарегистрирован:  1 год 1 месяц   |    Скачан:  0 раз

Полного источника не было: Никогда

Личеров:  1  [  0 KB/s  ]   Подробная статистика пиров
 
   
 
 
 

[Цитировать]

Эрмитаж. Сокровища нации
Дата/Год выпуска: 2014
Страна: Россия
Жанр: культурно-просветительский
Продолжительность: 00:51:59
Перевод: Не требуется
Русские субтитры: нет
Оригинальная аудиодорожка: русский
Режиссер: Ника Стрижак
Телеканал: ВГТРК
Описание: Для съемок документального фильма перекрывались залы Эрмитажа. Это первый раз в жизни музея, когда для съемочной группы телеканала *Россия* сделали такое исключение. Поэтому в фильме - эксклюзивные кадры, истории, тайны и музейные страсти. Государственному Эрмитажу 250 лет. Сегодня в Эрмитаже - одно из лучших собраний мирового искусства. Это поистине великий музей, который бережет сокровища нации. Но Эрмитаж велик не только своей уникальной коллекцией в миллионы единиц хранения. Его сердце - Зимний дворец - было главной резиденцией русских монархов. Именно здесь вершилась история. И потому жизнь коллекции тесно сплетена со многими событиями, происходившими во дворце. Тайны и заговоры, убийства и революции - все главные потрясения двух с половиной столетий прошли перед полотнами великих мастеров. Нередко и они становились заложниками изломов истории: их спасали от пожаров и войн, пытались продать и разделить, ссылали и грабили, защищали и гордились ими. Что они могут рассказать? Чему они были главными, пусть и молчаливыми свидетелями? Этот фильм - увлекательный рассказ об уникальном духе эрмитажного собрания через важные события, происшедшие в России. Это возможность для широкого зрителя узнать подробности нашей истории, почувствовать энергетику такого особенного места, пережить эмоции тех, кто когда-то здесь жил, служил и пополнял коллекцию. А главное - это часовое путешествие через века, для которого не надо покидать стен знаменитого дворца.
качество: HDTVRip
формат: AVI
Видео: MPEG4, XviD, 720x400 (16:9), 25.000 fps, 1 435 Kbps (0.199 bit/pixel)
Аудио: AC-3, 48.0 KHz, 2 ch, 192 Kbps, CBR

MediaInfo

GeneralComplete name : G:\документалка\Эрмитаж. Сокровища нации.aviFormat : AVIFormat/Info : Audio Video InterleaveFile size : 609 MiBDuration : 51mn 59sOverall bit rate : 1 638 KbpsWriting application : Lavf53.19.0
VideoID : 0Format : MPEG-4 VisualFormat profile : Advanced Simple@L5Format settings, BVOP : 1Format settings, QPel : NoFormat settings, GMC : No warppointsFormat settings, Matrix : CustomCodec ID : XVIDCodec ID/Hint : XviDDuration : 51mn 59sBit rate : 1 435 KbpsWidth : 720 pixelsHeight : 400 pixelsDisplay aspect ratio : 16:9Frame rate : 25.000 fpsColor space : YUVChroma subsampling : 4:2:0Bit depth : 8 bitsScan type : ProgressiveCompression mode : LossyBits/(Pixel*Frame) : 0.199Stream size : 534 MiB (88%)Writing library : XviD 73
AudioID : 1Format : AC-3Format/Info : Audio Coding 3Mode extension : CM (complete main)Format settings, Endianness : BigCodec ID : 2000Duration : 51mn 59sBit rate mode : ConstantBit rate : 192 KbpsChannel(s) : 2 channelsChannel positions : Front: L RSampling rate : 48.0 KHzBit depth : 16 bitsCompression mode : LossyStream size : 71.4 MiB (12%)Alignment : Aligned on interleavesInterleave, duration : 32 ms (0.80 video frame)

Скриншоты

[teatrix.ru].t8924.torrent 
Торрент: Зарегистрирован [ 2015-10-18 08:55 ] · 7700418AFB25CF716AAEA4EF09BFA047EFE43FCE

Скачать .torrent

Скачать

13 KB

Статус: проверено
Скачан: 0 раз
Размер: 609 MB
terms.php



Быстрый ответ

Имя:

      
Для отправки сообщений необходимо включить JavaScript
Показать сообщения:    

Текущее время: 06-Дек 19:03

Часовой пояс: UTC + 3


Вы можете начинать темы
Вы можете отвечать на сообщения
Вы не можете редактировать свои сообщения
Вы не можете удалять свои сообщения
Вы не можете голосовать в опросах
Вы не можете прикреплять файлы к сообщениям
Вы можете скачивать файлы