Великие артисты - великому городу (ведущий Александр Белинский) [2013, авторская программа, документальный, искусство, TVRip]


Статистика раздачи [Обновить пиров]
Размер:  13.04 GB   |    Зарегистрирован:  1 год 1 месяц   |    Скачан:  0 раз

Полного источника не было: Никогда

Личеров:  1  [  0 KB/s  ]   Подробная статистика пиров
 
   
 
 
 

[Цитировать]

Великие артисты - великому городу
Год выпуска: 2013
Страна: Россия
Жанр: авторская программа, документальный, искусство
Продолжительность: 53 х 26 мин
Перевод: Не требуется
Русские субтитры: нет
Режиссер: ведущий Александр Белинский

Описание: В своей авторской программе знаменитый кинорежиссер, писатель, публицист Александр Аркадьевич Белинский рассказывает об Артистах и Городе.
В его рассказах и воспоминаниях оживают - или молодеют на глазах! - великие актеры, режиссеры, художники, композиторы, которые оставили значимый след в истории, в культуре и памяти Петербурга: Шаляпин и Мейрхольд, Товстоногов и Толубеев, Николай Черкасов и Юрий Юрьев, Лидия Штыкан и семья Боярских...
Александр Белинский вновь поворачивает время вспять и воскрешает ушедшую эпоху - эпоху Великих артистов.

В данной раздаче представлены передачи:

1. Корней Чуковский
2. Династия Боярских
3. Николай Боярский и Лидия Штыкан
4. Фёдор Шаляпин
5. Николай Черкасов
6. Владимир Честноков
7. Евгений Деммени
8. Михаил Ботвинник
9. Валерий Гаврилин
10.Павел Кадочников
11.Ефим Копелян
12.Мария Савина
13. Давид Карасик
14. Иннокентий Смоктуновский
15. Елизавета Тиме
16. Николай Печковский
17. Александр Володин
18. Вера Комиссаржевская
19. Евгений Лебедев
20. Владимир Кожич
21. Вахтанг Чабукиани
22. Дмитрий Шостакович
23. Бруно Фрейндлих
24. Василий Меркурьев
25. Павел Панков
26. Игорь Владимиров
27. А.Орлов, Г.Богданова-Чеснокова, А.Королькевич (Театр Музкомедии)
28. Николай Акимов
29. Леонид Якобсон
30. Валентина Ковель
31. Игорь Горбачев
32. Екатерина Максимова
33. Борис Бабочкин
34. Григорий Козинцев
35. Валерия Киселева
36. Михаил Зощенко
37. Николай Трофимов
38. Евгений Шварц
39. Самуил Маршак
40. Кирилл Лавров
41. Великие артисты.2012-11-11. Всеволод Мейерхольд
42. Великие артисты.2012-11-18. Леонид Вивьен и ученики
43. Великие артисты.2012-11-25. Николай Симонов
44. Великие артисты.2013-01-13. Александр Брянцев
45. Великие артисты.2013-01-20. 275 лет Академии Русского балета им. А.Вагановой
46. Великие артисты.2013-03-03. Исаак Дунаевский и Леонид Утёсов
47. Великие артисты.2013-03-31. Зиновий Корогодский
48. Великие артисты.2013-04-07. Аркадий Райкин
49. Великие артисты.2013-04-14. Борис Зон
50. Великие артисты.2013-05-19. Владислав Стржельчик
51. Великие артисты.2013-06-09. Александр Менакер
52. Великие артисты.2014-01-03. Юрий и Андрей Толубеевы
53. Игорь Дмитриев
Доп. информация: Релиз:
Автор релиза: медикус
Раздача ведется путем добавления новых серий.
19.12.2014 года внесены изменения. Включена в раздачу одна пропущенная передача (Игорь Дмитриев) и одна заменена - в полном размере (Исаак Дунаевский и Леонид Утесов) - 46 серия - ранее раздавалась 15-минутная версия.
За предоставление записей огромное спасибо liboushe.

качество: TVRip
формат: AVI
Видео: 688x512 (1.34:1), 25 fps, XviD build 64 ~999-1228 kbps avg, 0.11-0.14 bit/pixel
Аудио: 48 kHz, AC3 Dolby Digital, 2/0 (L,R) ch, ~256 kbps

Список выпусков/серий

1. Корней Чуковский
2. Династия Боярских
3. Николай Боярский и Лидия Штыкан
4. Фёдор Шаляпин
5. Николай Черкасов
6. Владимир Честноков
7. Евгений Деммени
8. Михаил Ботвинник
9. Валерий Гаврилин
10.Павел Кадочников
11.Ефим Копелян
12.Мария Савина
13. Давид Карасик
14. Иннокентий Смоктуновский
15. Елизавета Тиме
16. Николай Печковский
17. Александр Володин
18. Вера Комиссаржевская
19. Евгений Лебедев
20. Владимир Кожич
21. Вахтанг Чабукиани
22. Дмитрий Шостакович
23. Бруно Фрейндлих
24. Василий Меркурьев
25. Павел Панков
26. Игорь Владимиров
27. А.Орлов, Г.Богданова-Чеснокова, А.Королькевич (Театр Музкомедии)
28. Николай Акимов
29. Леонид Якобсон
30. Валентина Ковель
31. Игорь Горбачев
32. Екатерина Максимова
33. Борис Бабочкин
34. Григорий Козинцев
35. Валерия Киселева
36. Михаил Зощенко
37. Николай Трофимов
38. Евгений Шварц
39. Самуил Маршак
40. Кирилл Лавров
41. Всеволод Мейерхольд
42. Леонид Вивьен и ученики
43. Николай Симонов
44. Александр Брянцев
45. 275 лет Академии Русского балета им. А.Вагановой
46. Исаак Дунаевский и Леонид Утёсов
47. Зиновий Корогодский
48. Аркадий Райкин
49. Борис Зон
50. Владислав Стржельчик
51. Александр Менакер
52. Юрий и Андрей Толубеевы
53. Игорь Дмитриев

MediaInfo

Формат : AVI
Формат/Информация : Audio Video Interleave
Размер файла : 329 Мбайт
Продолжительность : 25 м.
Общий поток : 1826 Кбит/сек
Библиотека кодирования : VirtualDub build 32842/release
Видео
Идентификатор : 0
Формат : MPEG-4 Visual
Профиль формата : Advanced Simple@L5
Параметр BVOP формата : 2
Параметр QPel формата : Нет
Параметр GMC формата : Без точки перехода
Параметр матрицы формата : Default (MPEG)
Идентификатор кодека : XVID
Идентификатор кодека/Подсказка : XviD
Продолжительность : 25 м.
Битрейт : 1560 Кбит/сек
Ширина : 688 пикселей
Высота : 512 пикселей
Соотношение сторон : 4:3
Частота кадров : 25,000 кадров/сек
Цветовое пространство : YUV
Субдискретизация насыщенности : 4:2:0
Битовая глубина : 8 бит
Тип развёртки : Прогрессивная
Метод сжатия : С потерями
Бит/(Пиксели*Кадры) : 0.177
Размер потока : 281 Мбайт (85%)
Библиотека кодирования : XviD 1.1.2 (UTC 2006-11-01)
Аудио
Идентификатор : 1
Формат : AC-3
Формат/Информация : Audio Coding 3
Расширение режима : CM (complete main)
Параметр Endianness формата : Big
Идентификатор кодека : 2000
Продолжительность : 25 м.
Вид битрейта : Постоянный
Битрейт : 256 Кбит/сек
Каналы : 2 канала
Расположение каналов : Front: L R
Частота : 48,0 КГц
Битовая глубина : 16 бит
Метод сжатия : С потерями
Размер потока : 46,2 Мбайт (14%)
Выравнивание : Соединение по промежуткам
Продолжительность промежутка : 40 мс. (1,00 видеокадр)
Время предзагрузки промежутка : 512 мс.

Скриншоты

[teatrix.ru].t8925.torrent 
Торрент: Зарегистрирован [ 2015-10-18 08:55 ] · D8DF00375BD763DA92D3BBC193D9A9427428E53B

Скачать .torrent

Скачать

72 KB

Статус: проверено
Скачан: 0 раз
Размер: 13.04 GB
terms.php



Быстрый ответ

Имя:

      
Для отправки сообщений необходимо включить JavaScript
Показать сообщения:    

Текущее время: 11-Дек 07:10

Часовой пояс: UTC + 3


Вы можете начинать темы
Вы можете отвечать на сообщения
Вы не можете редактировать свои сообщения
Вы не можете удалять свои сообщения
Вы не можете голосовать в опросах
Вы не можете прикреплять файлы к сообщениям
Вы можете скачивать файлы