Приют комедиантов. Щукины дети (Сергей Варновский) [04.11.2014, ТВ-передача, театр, искусство, SATRip]


Статистика раздачи [Обновить пиров]
Размер:  1.22 GB   |    Зарегистрирован:  1 год 1 месяц   |    Скачан:  0 раз

Полного источника не было: Никогда

 
   
 
 
 

[Цитировать]

Приют комедиантов. Щукины дети
Дата/Год выпуска: 04.11.2014
Страна: Россия, ООО "Эксклюзив ТВ"
Жанр: ТВ-передача, театр, искусство
Продолжительность: 01:29:50
Перевод: Не требуется
Русские субтитры: нет
Режиссер: Сергей Варновский
Ведущие: Екатерина Уфимцева, Михаил Швыдкой
Телеканал: ТВЦ
Описание: Выдающиеся педагоги, известные выпускники и нынешние студенты знаменитой Щуки радуют телезрителей историями из своей студенческой жизни. Какие прозвища преподаватели давали своим ученикам? Как абитуриенты вдохновляют щукинцев на успешную сдачу зачётов? Зачем однокурсник Леонида Ярмольника разбил на занятии телевизор?
качество: SATRip
формат: AVI
Видео: 688x512 (1.34:1), 25 fps, XviD build 50 ~1799 kbps avg, 0.20 bit/pixel
Аудио: 48 kHz, MPEG Layer 3, 2 ch, ~128.00 kbps avg

MediaInfo

Complete name : D:\Для записей\Razdacha\Приют комедиантов.Щукины дети.2014.SATRip.aviFormat : AVIFormat/Info : Audio Video InterleaveFile size : 1.22 GiBDuration : 1h 29mnOverall bit rate : 1 937 KbpsWriting application : VirtualDubMod 1.5.10.3 | www.virtualdub-fr.org || (build 2550/release)Writing library : VirtualDubMod build 2550/release
VideoID : 0Format : MPEG-4 VisualFormat profile : Advanced Simple@L5Format settings, BVOP : 2Format settings, QPel : NoFormat settings, GMC : No warppointsFormat settings, Matrix : Default (MPEG)Codec ID : XVIDCodec ID/Hint : XviDDuration : 1h 29mnBit rate : 1 799 KbpsWidth : 688 pixelsHeight : 512 pixelsDisplay aspect ratio : 4:3Frame rate : 25.000 fpsColor space : YUVChroma subsampling : 4:2:0Bit depth : 8 bitsScan type : ProgressiveCompression mode : LossyBits/(Pixel*Frame) : 0.204Stream size : 1.13 GiB (93%)Writing library : XviD 1.2.1 (UTC 2008-12-04)
AudioID : 1Format : MPEG AudioFormat version : Version 1Format profile : Layer 3Codec ID : 55Codec ID/Hint : MP3Duration : 1h 29mnBit rate mode : ConstantBit rate : 128 KbpsChannel count : 2 channelsSampling rate : 48.0 KHzCompression mode : LossyStream size : 82.2 MiB (7%)Alignment : Aligned on interleavesInterleave, duration : 40 ms (1.00 video frame)Interleave, preload duration : 504 msWriting library : LAME3.99rEncoding settings : -m s -V 4 -q 2 -lowpass 17 -b 128

Скриншоты

[teatrix.ru].t8926.torrent 
Торрент: Зарегистрирован [ 2015-10-18 08:55 ] · 1B5E894BA087ECD76820029BEB43A165EAE81CB0

Скачать .torrent

Скачать

25 KB

Статус: проверено
Скачан: 0 раз
Размер: 1.22 GB
terms.php



Быстрый ответ

Имя:

      
Для отправки сообщений необходимо включить JavaScript
Показать сообщения:    

Текущее время: 07-Дек 00:54

Часовой пояс: UTC + 3


Вы можете начинать темы
Вы можете отвечать на сообщения
Вы не можете редактировать свои сообщения
Вы не можете удалять свои сообщения
Вы не можете голосовать в опросах
Вы не можете прикреплять файлы к сообщениям
Вы можете скачивать файлы