В поисках большого стиля [2013, культура и искусство, WEBRip]


Статистика раздачи [Обновить пиров]
Размер:  250 MB   |    Зарегистрирован:  1 год 1 месяц   |    Скачан:  0 раз

Полного источника не было: Никогда

 
   
 
 
 

[Цитировать]

В поисках большого стиля
Год выпуска: 2013
Страна: Россия
Жанр: культура и искусство
Продолжительность: 00:27:00
Перевод: не требуется
Русские субтитры: нет
Описание: Представители нового поколения российских архитекторов Алексей Комов и Борис Кондаков рассужают о кризисе современной архитектуры и путях его преодоления. Ведущий Андрей Фефелов.
качество: WEBRip
формат: AVI
Видео: xvid, 720x400 (16:9), 25.000 fps, 1 089 Kbps (0.151 bit/pixel)
Аудио: MP3, 44.1 KHz, 2 ch, 192 Kbps, CBR

MediaInfo

General
Complete name : D:\документалка\День ТВ\В поисках большого стиля.avi
Format : AVI
Format/Info : Audio Video Interleave
File size : 250 MiB
Duration : 27mn 0s
Overall bit rate : 1 293 Kbps
Writing application : Lavf54.6.100
Video
ID : 0
Format : xvid
Codec ID : xvid
Duration : 27mn 0s
Bit rate : 1 089 Kbps
Width : 720 pixels
Height : 400 pixels
Display aspect ratio : 16:9
Frame rate : 25.000 fps
Bits/(Pixel*Frame) : 0.151
Stream size : 210 MiB (84%)
Audio
ID : 1
Format : MPEG Audio
Format version : Version 1
Format profile : Layer 3
Mode : Joint stereo
Codec ID : 55
Codec ID/Hint : MP3
Duration : 27mn 0s
Bit rate mode : Constant
Bit rate : 192 Kbps
Channel(s) : 2 channels
Sampling rate : 44.1 KHz
Compression mode : Lossy
Stream size : 37.1 MiB (15%)
Alignment : Aligned on interleaves
Interleave, duration : 26 ms (0.65 video frame)
Interleave, preload duration : 26 ms
Writing library : LAME3.98.4

Скриншоты

[teatrix.ru].t8927.torrent 
Торрент: Зарегистрирован [ 2015-10-18 08:55 ] · 4CE6888B7B8982A3D6A9474C49CD6291176E744A

Скачать .torrent

Скачать

20 KB

Статус: проверено
Скачан: 0 раз
Размер: 250 MB
terms.php



Быстрый ответ

Имя:

      
Для отправки сообщений необходимо включить JavaScript
Показать сообщения:    

Текущее время: 04-Дек 02:56

Часовой пояс: UTC + 3


Вы можете начинать темы
Вы можете отвечать на сообщения
Вы не можете редактировать свои сообщения
Вы не можете удалять свои сообщения
Вы не можете голосовать в опросах
Вы не можете прикреплять файлы к сообщениям
Вы можете скачивать файлы