Пешком. Цикл телевизионных программ. ( Ольга Кротова, Елена Васюкова, Михаил Кондалов) [2012 - 2014, научно-познавательный, исторический, SATRip]


Статистика раздачи [Обновить пиров]
Размер:  22.25 GB   |    Зарегистрирован:  1 год 1 месяц   |    Скачан:  4 раза
Сидов:  1  [  0 KB/s  ]   Подробная статистика пиров
 
   
 
 
 

[Цитировать]

Пешком. Цикл телевизионных программ.
Год выпуска: 2012-2014
Страна: Россия
Жанр: научно-познавательный, исторический
Продолжительность: 67 х 26 мин
Перевод: Не требуется
Русские субтитры: нет
Режиссер: Ольга Кротова, Елена Васюкова, Михаил Кондалов
Автор и ведущий: Михаил Жебрак
Редактор: Виктория Рябинина
ООО "МАГ ТВ", 2012 - 2014 г.г., ГТРК "Культура"

Описание: Это 26-ти минутная зрелищная пешеходная экскурсия с потрясающим экскурсоводом - историком, коренным москвичом по разной Москве, во время экскурсии мы сможем даже увидеть Москву, которой больше нет….
Суть программы состоит в том, что автор и ведущий Михаил Жебрак покажет зрителю его родной город таким, каким он его еще не видел.
Это тематические пешие экскурсии по разной Москве. Ведь мало кому известно, что у Москвы женское лицо, что Москву можно одновременно назвать и британской , и французской, и итальянской , и немецкой , и даже армянской, что Москва- это город кино, театра и студентов, а также… островов, что историки называют Москву и толстовской, и цветаевской, и булгаковской , и православной, и купеческой, что Москва- это город архитектурных контрастов, где на одном небольшом переулке, на расстоянии 15 метров друг от друга могут соседствовать так называемый новодел ( нео-модерн) и деревянные постройки конца 18 века....
Присоединяйтесь к нашим прогулкам по Москве. Пешком....

Внимание! Раздача ведется путем добавления новых серий.
Сделано дополнение к раздаче: добавлена 67-ая серия 19.11.2014: Пешком... "Москва литературная"
24.11.2014 67 фильм заменен в связи с тем, что в некоторых местах была пропущена озвучка.

Продолжение Цикла передач, начиная с 68 серии, здесь:Список раздаваемого материала и краткое описание серий.

скрытый текст

1. Москва Бородинская. "Пешком..."
67 серий:
01. Москва купеческая
02. Москва британская
03. Москва екатерининская
04. Москва бронзовая
05. Москва водная
06. Москва чайная
07. Москва итальянская
08. Москва сталинская
09. Москва усадебная
10. Москва киношная
11. Москва бородинская
12. Москва железнодорожная
13. Москва женская
14. Москва узорчатая
15. Москва театральная
16. Москва спортивная
17. Москва классическая
18. Москва торговая
19. Москва поэтическая
20. Москва современная
21. Москва немецкая
22. Москва серебряная
23. Москва ленинская
24. Москва лечебная
25. Москва музейная
26. Москва дворцовая
27. Москва готическая
28. Москва Петровская
29. Москва студенческая
30. Москва французская
31. Москва барочная
32. Москва ильфопетровская
33. Москва дворовая
34. Москва посольская
35. Москва бульварная
36. Москва музыкальная
37. Москва писательская
38. Москва царская
39. Москва новомосковская
40. Москва сельскохозяйственная
41. Москва речная
42. Москва военная
43. Москва техническая
44. Москва лицедейская
45. Москва пешеходная
46. Москва детская
47. Москва армянская
48. Москва фабричная
49. Москва мемориальная
50. Москва книжная
51. Москва причудливая
52. Москва боярская
53. Москва подземная
54. Москва грузинская
55. Москва дворянская
56. Москва хлебосольная
57. Москва толстовская
58. Москва коммунальная
59. Москва храмовая
60. Москва выставочная
61. "Вокзалы: Москва - Санкт-Петербург"
62. "Вокзалы: Москва - Липецк"
63. "Вокзалы: Москва - Рыбинск"
64. "Вокзалы: Москва - Самара"
65. "Вокзалы: Москва - Екатеринбург"
66. "Вокзалы: Москва - Сочи"
67. Москва литературная

MediaInfo

General
Complete name : D:\ФЕНИКС\Торренты файлы раздач\Moskva...Peshkom.SAT-rip.by.mikloeff\Moskva.Kupecheskaya.Peshkom.SAT-rip.by.mikloeff.avi
Format : AVI
Format/Info : Audio Video Interleave
File size : 361 MiB
Duration : 26mn 6s
Overall bit rate : 1 935 Kbps
Writing library : VirtualDub build 32842/release
Video
ID : 0
Format : MPEG-4 Visual
Format settings, BVOP : No
Format settings, QPel : No
Format settings, GMC : No warppoints
Format settings, Matrix : Default (H.263)
Codec ID : DX50
Codec ID/Hint : DivX 5
Duration : 26mn 6s
Bit rate : 1 797 Kbps
Width : 704 pixels
Height : 400 pixels
Display aspect ratio : 16:9
Frame rate : 25.000 fps
Color space : YUV
Chroma subsampling : 4:2:0
Bit depth : 8 bits
Scan type : Progressive
Compression mode : Lossy
Bits/(Pixel*Frame) : 0.255
Stream size : 336 MiB (93%)
Writing library : DivX 5.2.1 (WaffleDay) (UTC 2004-09-08)
Audio
ID : 1
Format : MPEG Audio
Format version : Version 1
Format profile : Layer 3
Mode : Joint stereo
Mode extension : MS Stereo
Codec ID : 55
Codec ID/Hint : MP3
Duration : 26mn 6s
Bit rate mode : Constant
Bit rate : 128 Kbps
Channel(s) : 2 channels
Sampling rate : 48.0 KHz
Compression mode : Lossy
Stream size : 23.9 MiB (7%)
Alignment : Split accross interleaves
Interleave, duration : 40 ms (1.00 video frame)
Interleave, preload duration : 500 ms
Writing library : LAME3.98.4ЄЄЄЄЄЄЄЄЄЄ

Скриншоты

Москва купеческая.

Москва британская.

Москва бронзовая.

Москва музейная.

Москва дворцовая.

Москва готическая

Москва Петровская

Москва французская

Москва студенческая

Москва барочная

Москва ильфопетровская

Москва дворовая
[teatrix.ru].t8928.torrent 
Торрент: Зарегистрирован [ 2015-10-18 08:55 ] · A837D62522952ED66CFA930A11224B386E633A3D

Скачать .torrent

Скачать

117 KB

Статус: проверено
Скачан: 4 раз
Размер: 22.25 GB
terms.php



Быстрый ответ

Имя:

      
Для отправки сообщений необходимо включить JavaScript
Показать сообщения:    

Текущее время: 03-Дек 07:38

Часовой пояс: UTC + 3


Вы можете начинать темы
Вы можете отвечать на сообщения
Вы не можете редактировать свои сообщения
Вы не можете удалять свои сообщения
Вы не можете голосовать в опросах
Вы не можете прикреплять файлы к сообщениям
Вы можете скачивать файлы