Красный Эрмитаж (Ольга Дроздова) [2014, документальный, искусство, история искусств, DVB-AVC]


Статистика раздачи [Обновить пиров]
Размер:  779 MB   |    Зарегистрирован:  1 год 1 месяц   |    Скачан:  0 раз

Полного источника не было: Никогда

 
   
 
 
 

[Цитировать]

Красный Эрмитаж
Дата/Год выпуска: 2014
Страна: Россия
Жанр: документальный, искусство, история искусств
Продолжительность: 00:39:01
Перевод: Не требуется
Режиссер: Ольга Дроздова
Описание: Полная драматизма история сотрудников Эрмитажа, которые в тяжелейших условиях слома государственного устройства, хаоса Первой Мировой, а затем и Гражданской войны, голода и холода первых послереволюционных лет, волюнтаризма сталинской индустриализации сумели сохранить уникальные художественные коллекции, составляющие гордость России. В основе фильма - воспоминания последнего "императорского" директора Эрмитажа графа Дмитрия Толстого и уникальные документы из Архива Эрмитажа.
Участвуют: Михаил Пиотровский, Елена Соломаха, Юлия Кантор.
Сэмпл: http://sendfile.su/1045938
Качество видео: DVB-AVC (РТРС-1)
Формат/Контейнер: MKV
Видео кодек: H.264
Аудио кодек: MP2
Видео поток: 720x576 (AR 785:576) 50fps ~2500 Kbps. Обрезка кадра средствами контейнера до AR 16:9 работает в некоторых плеерах.
Аудио поток: 48000Hz 2 ch mono 192 Kbps

MediaInfo

Format : MatroskaFormat version : Version 4 / Version 2File size : 779 MiBDuration : 39mn 0sOverall bit rate : 2 792 KbpsEncoded date : UTC 2014-11-08 21:06:32Writing application : mkvmerge v6.1.0 ('Old Devil') built on Mar 4 2013 09:10:42Writing library : libebml v1.3.0 + libmatroska v1.4.0
VideoID : 1Format : AVCFormat/Info : Advanced Video CodecFormat profile : Main@L3.0Format settings, CABAC : YesFormat settings, ReFrames : 3 framesCodec ID : V_MPEG4/ISO/AVCDuration : 39mn 0sBit rate : 2 544 KbpsWidth : 720 pixelsHeight : 576 pixelsDisplay aspect ratio : 4:3Original display aspect ratio : 4:3Frame rate mode : ConstantFrame rate : 25.000 fpsStandard : ComponentColor space : YUVChroma subsampling : 4:2:0Bit depth : 8 bitsScan type : InterlacedBits/(Pixel*Frame) : 0.245Stream size : 710 MiB (91%)Default : YesForced : NoColor primaries : BT.601 PALTransfer characteristics : BT.470 System B, BT.470 System GMatrix coefficients : BT.601
AudioID : 2Format : MPEG AudioFormat version : Version 1Format profile : Layer 2Codec ID : A_MPEG/L2Codec ID/Hint : MP2Duration : 39mn 0sBit rate mode : ConstantBit rate : 192 KbpsChannel(s) : 2 channelsSampling rate : 48.0 KHzCompression mode : LossyDelay relative to video : 4msStream size : 53.6 MiB (7%)Default : YesForced : No

Скриншоты

[teatrix.ru].t8930.torrent 
Торрент: Зарегистрирован [ 2015-10-18 08:55 ] · FE495CF156D12A205B9636227B6D6CE2BF36792E

Скачать .torrent

Скачать

16 KB

Статус: проверено
Скачан: 0 раз
Размер: 779 MB
terms.php



Быстрый ответ

Имя:

      
Для отправки сообщений необходимо включить JavaScript
Показать сообщения:    

Текущее время: 07-Дек 00:54

Часовой пояс: UTC + 3


Вы можете начинать темы
Вы можете отвечать на сообщения
Вы не можете редактировать свои сообщения
Вы не можете удалять свои сообщения
Вы не можете голосовать в опросах
Вы не можете прикреплять файлы к сообщениям
Вы можете скачивать файлы