Эрмитаж. Экскурсия по музею (Игорь Лебедев) [2006, культура и искусство, DVDRip]


Статистика раздачи [Обновить пиров]
Размер:  1.37 GB   |    Зарегистрирован:  1 год 1 месяц   |    Скачан:  0 раз

Полного источника не было: Никогда

 
   
 
 
 

[Цитировать]

Эрмитаж. Экскурсия по музею
Дата/Год выпуска: 2006
Страна: Россия
Жанр: культура и искусство
Продолжительность: 01:44:12
Перевод: Не требуется
Русские субтитры: нет
Оригинальная аудиодорожка: нет
Режиссер: Игорь Лебедев
Описание: Государственный Эрмитаж принадлежит к числу величайших музеев мира. Почти за два с половиной столетия в нем собрана одна из крупнейших коллекций памятников мировой культуры, насчитывающая около трех миллионов экспонатов. Этот фильм - увлекательная экскурсия по бывшей царской резиденции с ее неповторимыми интерьерами и грандиозными парадными залами, по выставками произведений живописи, скульптуры, декротивно-прикладного искусстава разных эпох. Зрителю представится возможность услышать интересный рассказ об истороии создания музея. В фильм также включены уникальные съемки экспонатов хранящихся в Особой кладовой Эрмитажа - золота скифов, изделий из драгоценных металлов и камней, выполненных тысячелетия тому нанзад, а также Галереи драгоценностей, где представлены произведения западноевропейского ювелирного искусства, украшенные бриллиантами, сафирами, рубинами и изумрудами.
качество: DVDRip
формат: AVI
Видео: MPEG4, DivX 5, 720x544 (4:3), 25.000 fps, 1 678 Kbps (0.171 bit/pixel)
Аудио: AC-3, 48.0 KHz, 2 ch, 192 Kbps, CBR (Russian)

MediaInfo

GeneralComplete name : G:\документалка\Эрмитаж. Экскурсия по музею.aviFormat : AVIFormat/Info : Audio Video InterleaveFile size : 1.37 GiBDuration : 1h 44mnOverall bit rate : 1 876 KbpsWriting application : VirtualDubMod 1.5.4.1 (build 2178/release)Writing library : VirtualDubMod build 2178/release
VideoID : 0Format : MPEG-4 VisualFormat settings, BVOP : 1Format settings, QPel : NoFormat settings, GMC : No warppointsFormat settings, Matrix : Default (H.263)Muxing mode : Packed bitstreamCodec ID : DX50Codec ID/Hint : DivX 5Duration : 1h 44mnBit rate : 1 678 KbpsWidth : 720 pixelsHeight : 544 pixelsDisplay aspect ratio : 4:3Frame rate : 25.000 fpsColor space : YUVChroma subsampling : 4:2:0Bit depth : 8 bitsScan type : ProgressiveCompression mode : LossyBits/(Pixel*Frame) : 0.171Stream size : 1.22 GiB (89%)Writing library : DivX 6.4.0 (UTC 2006-10-03)
AudioID : 1Format : AC-3Format/Info : Audio Coding 3Mode extension : CM (complete main)Format settings, Endianness : BigCodec ID : 2000Duration : 1h 44mnBit rate mode : ConstantBit rate : 192 KbpsChannel(s) : 2 channelsChannel positions : Front: L RSampling rate : 48.0 KHzBit depth : 16 bitsCompression mode : LossyStream size : 143 MiB (10%)Alignment : Split accross interleavesInterleave, duration : 96 ms (2.40 video frames)Interleave, preload duration : 96 msLanguage : Russian

Скриншоты

[teatrix.ru].t8932.torrent 
Торрент: Зарегистрирован [ 2015-10-18 08:55 ] · F30180B2D3161FA93114CDC61F3DA9A765A86787

Скачать .torrent

Скачать

14 KB

Статус: проверено
Скачан: 0 раз
Размер: 1.37 GB
terms.php



Быстрый ответ

Имя:

      
Для отправки сообщений необходимо включить JavaScript
Показать сообщения:    

Текущее время: 03-Дек 01:21

Часовой пояс: UTC + 3


Вы можете начинать темы
Вы можете отвечать на сообщения
Вы не можете редактировать свои сообщения
Вы не можете удалять свои сообщения
Вы не можете голосовать в опросах
Вы не можете прикреплять файлы к сообщениям
Вы можете скачивать файлы