Пропавший Карраччи / The Loss Carracci / Il Carracci Perduto (Андреа Дальпьян / Andrea Dalpian) [2012, документальный, история искусств, DVB] VO (Ред Медиа)


Статистика раздачи [Обновить пиров]
Размер:  779 MB   |    Зарегистрирован:  1 год 1 месяц   |    Скачан:  0 раз

Полного источника не было: Никогда

 
   
 
 
 

[Цитировать]

Пропавший Карраччи
The Loss Carracci- Дата/Год выпуска: 2012
Страна: Италия
Жанр: документальный, история искусств
Продолжительность: 00:50:17
Перевод: Студийный (одноголосый закадровый)
Доп. инфо о переводе: ТПО "Ред Медиа"
Русские субтитры: нет
Режиссер: Андреа Дальпьян / Andrea Dalpian
Телеканал: 365 днейОписание: Карраччи (Carracci) • семья итальянских живописцев: Лодовико (Lodovico, 1555-1619 гг.) и его двоюродные братья, Агостино (Agostino, 1557-1602 гг.) и Аннибале (Annibale, 1560-1609 г.). Братья Карраччи были основателями болонской "Академии вступивших на правильный путь" (основана ок. 1585 г.). Братья Карраччи изучали произведения Рафаэля, Корреджо и венецианских мастеров XVI в. Они практиковали тщательное изучение натуры, основ рисунка и композиции, стремились вернуться к принципам ренессансной живописи.
Доп. информация: DVB-S

качество: DVB
формат: MKV
Видео: MPEG Video 2, 720x576@768x576 (4:3), 25 fps, ~1930 kbps avg, 0.186 bit/pixel
Аудио: MPEG Audio 2, 2 ch, 48 kHz, ~192.00 kbps avg

MediaInfo

ОбщееУникальный идентификатор : 232113037092366898370743257241478933736 (0xAE9F5848DE57AF4AAFEAFEA998DEACE8)Полное имя : E:\My Torrents 2\[apreder]The_Loss_Carracci(2012)DVB.mkvФормат : MatroskaВерсия формата : Version 2Размер файла : 779 МбайтПродолжительность : 50 м.Режим общего битрейта : ПеременныйОбщий поток : 2165 Кбит/секДата кодирования : UTC 2014-10-25 13:01:51Программа кодирования : mkvmerge v7.3.0 ('Nouages') 64bit built on Oct 22 2014 18:53:34Библиотека кодирования : libebml v1.3.0 + libmatroska v1.4.1
ВидеоИдентификатор : 1Формат : MPEG VideoВерсия формата : Version 2Профиль формата : Main@MainПараметр BVOP формата : НетПараметр матрицы формата : ВыборочнаяFormat_Settings_PictureStructure : FrameИдентификатор кодека : V_MPEG2Идентификатор кодека/Информация : MPEG 1 or 2 VideoПродолжительность : 50 м.Вид битрейта : ПеременныйБитрейт : 1930 Кбит/секМаксимальный битрейт : 5194 Кбит/секШирина : 720 пикселейВысота : 576 пикселейСоотношение сторон : 4:3Режим частоты кадров : ПостоянныйЧастота кадров : 25,000 кадров/секСтандарт вещания : PALЦветовое пространство : YUVСубдискретизация насыщенности : 4:2:0Битовая глубина : 8 битТип развёртки : ЧересстрочнаяПорядок развёртки : Верхнее поле первоеМетод сжатия : С потерямиБит/(Пиксели*Кадры) : 0.186Временной код первого кадра : 00:00:00:00Оригинал временного кода : Group of pictures headerРазмер потока : 694 Мбайт (89%)Default : ДаForced : Нет
АудиоИдентификатор : 2Формат : MPEG AudioВерсия формата : Version 1Профиль формата : Layer 2Идентификатор кодека : A_MPEG/L2Идентификатор кодека/Подсказка : MP2Продолжительность : 50 м.Вид битрейта : ПостоянныйБитрейт : 192 Кбит/секКаналы : 2 каналаЧастота : 48,0 КГцМетод сжатия : С потерямиРазмер потока : 69,1 Мбайт (9%)Язык : RussianDefault : ДаForced : Нет

Скриншоты


Резервные скриншоты


-[1'847]
[teatrix.ru].t8933.torrent 
Торрент: Зарегистрирован [ 2015-10-18 08:55 ] · D71E19AAF0776D3D5940724C3822C77D7D82483E

Скачать .torrent

Скачать

16 KB

Статус: проверено
Скачан: 0 раз
Размер: 779 MB
terms.php



Быстрый ответ

Имя:

      
Для отправки сообщений необходимо включить JavaScript
Показать сообщения:    

Текущее время: 10-Дек 07:57

Часовой пояс: UTC + 3


Вы можете начинать темы
Вы можете отвечать на сообщения
Вы не можете редактировать свои сообщения
Вы не можете удалять свои сообщения
Вы не можете голосовать в опросах
Вы не можете прикреплять файлы к сообщениям
Вы можете скачивать файлы