Веков прикосновение (Р. Шилинис) [1983, Литовская киностудия, документальный, VHSRip]


Статистика раздачи [Обновить пиров]
Размер:  200 MB   |    Зарегистрирован:  1 год 1 месяц   |    Скачан:  0 раз

Полного источника не было: Никогда

 
   
 
 
 

[Цитировать]

Веков прикосновение
Дата/Год выпуска: 1983
Страна: СССР
Жанр: документальный
Продолжительность: 00:19:28
Перевод: Не требуется
Режиссер: Р. Шилинис
Описание: Фильм рассказывает о литовских реставраторах, о поисках ими оригинальной настенной живописи в старинном Тракайском замке, в архитектурном ансамбле Бернардинай в Вильнюсе, в ансамбле Титувенай...Благодаря кропотливому труду и мастерству реставраторов возвращены к жизни новые шедевры разных эпох.
Доп. информация: Фильм оцифрован с киноплёнки 16-мм из личного архива
качество: VHSRip
формат: AVI
Видео: XviD, 4:3, 720х544, 1433 kbps, 25 fps
Аудио: МР-3, 128 kbps, 48 kHz, 2 ch (моно)

MediaInfo

ОбщееПолное имя :Веков прикосновение.aviФормат : AVIФормат/Информация : Audio Video InterleaveРазмер файла : 200 МбайтПродолжительность : 19 м.Общий поток : 1434 Кбит/секПрограмма кодирования : VirtualDubMod 1.5.4.1 (build 2178/release)Библиотека кодирования : VirtualDubMod build 2178/release
ВидеоИдентификатор : 0Формат : MPEG-4 VisualПрофиль формата : Advanced Simple@L5Параметр BVOP формата : 1Параметр QPel формата : НетПараметр GMC формата : Без точки переходаПараметр матрицы формата : ВыборочнаяИдентификатор кодека : XVIDИдентификатор кодека/Подсказка : XviDПродолжительность : 19 м.Битрейт : 1298 Кбит/секШирина : 720 пикселейВысота : 544 пикселяСоотношение сторон : 4:3Частота кадров : 25,000 кадров/секЦветовое пространство : YUVСубдискретизация насыщенности : 4:2:0Битовая глубина : 8 битТип развёртки : ПрогрессивнаяМетод сжатия : С потерямиБит/(Пиксели*Кадры) : 0.133Размер потока : 181 Мбайт (91%)Библиотека кодирования : XviD 64
АудиоИдентификатор : 1Формат : MPEG AudioВерсия формата : Version 1Профиль формата : Layer 3Режим : Joint stereoРасширение режима : MS StereoИдентификатор кодека : 55Идентификатор кодека/Подсказка : MP3Продолжительность : 19 м.Вид битрейта : ПостоянныйБитрейт : 128 Кбит/секКаналы : 2 каналаЧастота : 48,0 КГцМетод сжатия : С потерямиРазмер потока : 17,8 Мбайт (9%)Выравнивание : Соединение по промежуткамПродолжительность промежутка : 80 мс. (2,00 видеокадра)Время предзагрузки промежутка : 504 мс.Библиотека кодирования : LAME3.98rНастройки программы : -m j -V 4 -q 2 -lowpass 17 -b 128

Скриншоты

, , , ,
[teatrix.ru].t8934.torrent 
Торрент: Зарегистрирован [ 2015-10-18 08:55 ] · 87ED9A7EE6E31EC62A219F2E9355925F138EB413

Скачать .torrent

Скачать

16 KB

Статус: проверено
Скачан: 0 раз
Размер: 200 MB
terms.php



Быстрый ответ

Имя:

      
Для отправки сообщений необходимо включить JavaScript
Показать сообщения:    

Текущее время: 05-Дек 15:31

Часовой пояс: UTC + 3


Вы можете начинать темы
Вы можете отвечать на сообщения
Вы не можете редактировать свои сообщения
Вы не можете удалять свои сообщения
Вы не можете голосовать в опросах
Вы не можете прикреплять файлы к сообщениям
Вы можете скачивать файлы