Музей изобразительных искусств имени Пушкина. Лики истории [2009, Документальный, познавательный, DVB]


Статистика раздачи [Обновить пиров]
Размер:  394 MB   |    Зарегистрирован:  1 год 1 месяц   |    Скачан:  0 раз

Полного источника не было: Никогда

 
   
 
 
 

[Цитировать]

Музей изобразительных искусств имени Пушкина. Лики истории
Год выпуска: 2009
Страна: Россия, Продюссерский центр "Доктор Чехов"
Жанр: Документальный, познавательный
Продолжительность: 00.:25:47
Перевод: Не требуется
Русские субтитры: нет
Описание: В рамках известных вечеров Святослава Рихтера, проводимых каждый год в декабре, в Государственном музее изобразительных искусств имени А.С. Пушкина 30 ноября 2009 года в открывается выставка "Лики истории в европейском искусстве XIX века" из российских и зарубежных музеев.Экспозиция включает около 100 произведений живописи и графики. Среди шедевров, представленных на выставке, – знаменитый эскиз к "Клятве Горациев" Ж.-Л. Давида, полотна Д. Энгра, Э. Делакруа, О. Домье, А. Менцеля, графика Ф. Гойи, произведения художников назарейцев и лучшие работы прерафаэлитов, картины живописцев русской школы, представленные как шедеврами, так и мало известными московской публике работами из музеев России. Многие произведения связаны с историческими событиями, сотрясавшими Европу на протяжении всего XIX столетия. Зрители также смогут увидеть произведения декоративно-прикладного искусства, которые послужат прекрасным дополнением к живописи. Предметы, окружавшие людей той эпохи, подробно расскажут об их жизни, надеждах, вкусах и увлечениях. Кроме того, на выставке будет представлена и скульптура, раскрывающая историческую тему.
Доп. информация:

MI

General
ID : 1 (0x1)
Complete name : C:Музей изобразительных искусств имени Пушкина. Лики истории_DVB_by_dean10.ts
Format : MPEG-TS
File size : 394 MiB
Duration : 25mn 47s
Overall bit rate : 2 135 Kbps
Video
ID : 751 (0x2EF)
Menu ID : 1 (0x1)
Format : AVC
Format/Info : Advanced Video Codec
Format profile : Main@L3.0
Format settings, CABAC : Yes
Format settings, ReFrames : 4 frames
Codec ID : 27
Duration : 25mn 47s
Bit rate : 1 836 Kbps
Width : 720 pixels
Height : 576 pixels
Display aspect ratio : 4:3
Frame rate : 25.000 fps
Standard : Component
Color space : YUV
Chroma subsampling : 4:2:0
Bit depth : 8 bits
Scan type : Interlaced
Scan order : Top Field First
Bits/(Pixel*Frame) : 0.177
Stream size : 339 MiB (86%)
Color primaries : BT.470-6 System B, BT.470-6 System G, BT.601-6 625, BT.1358 625, BT.1700 625 PAL, BT.1700 625 SECAM
Transfer characteristics : BT.470-6 System B, BT.470-6 System G
Matrix coefficients : BT.470-6 System B, BT.470-6 System G, BT.601-6 625, BT.1358 625, BT.1700 625 PAL, BT.1700 625 SECAM, IEC 61966-2-4 601
Audio
ID : 752 (0x2F0)
Menu ID : 1 (0x1)
Format : MPEG Audio
Format version : Version 1
Format profile : Layer 2
Codec ID : 3
Duration : 25mn 47s
Bit rate mode : Constant
Bit rate : 192 Kbps
Channel(s) : 2 channels
Sampling rate : 48.0 KHz
Compression mode : Lossy
Delay relative to video : -40ms
Stream size : 35.4 MiB (9%)
Language : Russian
Качество: DVB
Формат: TS
Видео кодек: H.264
Аудио кодек: мр2
Видео: MPEG-4 AVC, 720x576, (4:3), 25 fps, 1 836 kbps
Аудио: Russian: 48 kHz, мр2, 2 ch, 192 kbps

Скриншоты

[teatrix.ru].t8938.torrent 
Торрент: Зарегистрирован [ 2015-10-18 08:55 ] · 34208EE1036448C06966C5BA26134603D8A0B274

Скачать .torrent

Скачать

16 KB

Статус: проверено
Скачан: 0 раз
Размер: 394 MB
terms.php



Быстрый ответ

Имя:

      
Для отправки сообщений необходимо включить JavaScript
Показать сообщения:    

Текущее время: 04-Дек 11:08

Часовой пояс: UTC + 3


Вы можете начинать темы
Вы можете отвечать на сообщения
Вы не можете редактировать свои сообщения
Вы не можете удалять свои сообщения
Вы не можете голосовать в опросах
Вы не можете прикреплять файлы к сообщениям
Вы можете скачивать файлы