Художники за работой / Painters Painting (Emile de Antonio) [1973, Документальный, DVDRip]


Статистика раздачи [Обновить пиров]
Размер:  1.25 GB   |    Зарегистрирован:  1 год 1 месяц   |    Скачан:  1 раз

Полного источника не было: 7 месяцев 8 дней

 
   
 
 
 

[Цитировать]

Художники за работой / Painters Painting
Год выпуска: 1973
Страна: USA
Жанр: Документальный
Продолжительность: 01:58:26
Перевод: Отсутствует
Русские субтитры: есть
Режиссер: Emile de Antonio
Описание: Раритетный фильм об абстрактном экспрессионизме, поп-арте и живописи цветового поля. Содержит интервью с Барнеттом Ньюменом, Уиллемом де Кунингом, Франком Стелла, Джаспером Джонсом, Робертом Раушенбергом, Энди Уорхолом и др.
Качество: DVDRip
Формат: AVI
Видео кодек: XviD
Аудио кодек: MP3
Видео: XviD MPEG-4, 496 x 368, 4:3, 1 364 kbps, 29 970 fps
Аудио: MPEG-1 Layer 3, 132 kbps, 48 Khz, 2 channels

отчет MediaInfo

General
Complete name : E:\PaintersPainting.avi
Format : AVI
Format/Info : Audio Video Interleave
File size : 1.25 GiB
Duration : 1h 58mn
Overall bit rate mode : Variable
Overall bit rate : 1 510 Kbps
Writing application : VirtualDubMod 1.5.4.1 (build 2178/release)
Writing library : VirtualDub build 32706/release
Video
ID : 0
Format : MPEG-4 Visual
Format profile : Advanced Simple@L5
Format settings, BVOP : 2
Format settings, QPel : No
Format settings, GMC : No warppoints
Format settings, Matrix : Default (H.263)
Muxing mode : Packed bitstream
Codec ID : XVID
Codec ID/Hint : XviD
Duration : 1h 58mn
Bit rate : 1 364 Kbps
Width : 496 pixels
Height : 368 pixels
Display aspect ratio : 4:3
Frame rate : 29.970 fps
Color space : YUV
Chroma subsampling : 4:2:0
Bit depth : 8 bits
Scan type : Progressive
Compression mode : Lossy
Bits/(Pixel*Frame) : 0.249
Stream size : 1.13 GiB (90%)
Writing library : XviD 1.2.1 (UTC 2008-12-04)
Audio
ID : 1
Format : MPEG Audio
Format version : Version 1
Format profile : Layer 3
Mode : Joint stereo
Mode extension : MS Stereo
Codec ID : 55
Codec ID/Hint : MP3
Duration : 1h 58mn
Bit rate mode : Variable
Bit rate : 132 Kbps
Nominal bit rate : 160 Kbps
Channel(s) : 2 channels
Sampling rate : 48.0 KHz
Compression mode : Lossy
Stream size : 112 MiB (9%)
Alignment : Aligned on interleaves
Interleave, duration : 24 ms (0.72 video frame)
Interleave, preload duration : 586 ms
Writing library : LAME3.97
Encoding settings : -m j -V 4 -q 2 -lowpass 17.5 --abr 160
[teatrix.ru].t8940.torrent 
Торрент: Зарегистрирован [ 2015-10-18 08:55 ] · 6375BD9D1179327776AA536B72211D90D33F5DF5

Скачать .torrent

Скачать

26 KB

Статус: проверено
Скачан: 1 раз
Размер: 1.25 GB
terms.php



Быстрый ответ

Имя:

      
Для отправки сообщений необходимо включить JavaScript
Показать сообщения:    

Текущее время: 08-Дек 10:59

Часовой пояс: UTC + 3


Вы можете начинать темы
Вы можете отвечать на сообщения
Вы не можете редактировать свои сообщения
Вы не можете удалять свои сообщения
Вы не можете голосовать в опросах
Вы не можете прикреплять файлы к сообщениям
Вы можете скачивать файлы