Леонардо. Опасные связи / Leonardo da vinchi (Майкл Фонтейн) [2011, Документальный, DVB]


Статистика раздачи [Обновить пиров]
Размер:  1.11 GB   |    Зарегистрирован:  1 год 1 месяц   |    Скачан:  1 раз

Полного источника не было: 7 месяцев 3 дня

 
   
 
 
 

[Цитировать]

Леонардо. Опасные связи / Leonardo da vinchi
Год выпуска: 2011
Страна: Великобритания, BBC
Жанр: Документальный
Продолжительность: 0:49:58
Перевод: Профессиональный (двухголосый)
Режиссер: Майкл Фонтейн
Описание: Леонардо да Винчи К сорока годам Леонардо да Винчи приобрел известность не только как художник, но и как изобретатель. Он пишет Тайную вечерю и изобретает акваланг, создает Мону Лизу и проектирует планер, препарирует трупы, открывает холестерин и изобретает человекообразного робота. Кем же на самом деле был этот величайший гений, обладавший пытливым умом и блистательным воображением?..
[Качество: DVB
Формат: MPEG
Видео кодек: MPEG2
Аудио кодек: MPEG1 Layer 2
Видео: MPEG2 Video 720x576 (4:3) 25.00fps ~2 930 Kbps
Аудио: MPEG Audio 48000Hz 2 channels 192 Кбит/сек

MediaInfo

H:\333-mpeg\Леонардо. Опасные связи_DVB by kuzmichm2196 .mpg
General
Complete name : H:\333-mpeg\Леонардо. Опасные связи_DVB by kuzmichm2196 .mpg
Format : MPEG-PS
File size : 1.11 GiB
Duration : 49mn 58s
Overall bit rate : 3 186 Kbps
Writing library : (c) 1998-2008 Womble Multimedia, Inc. / MPEG Video Wizard (08/2008) / Aug 25 2008
Video #224
ID : 224 (0xE0)
Format : MPEG Video
Format version : Version 2
Format profile : Main@Main
Format settings, BVOP : Yes
Format settings, Matrix : Custom
Format settings, GOP : M=2, N=24
Duration : 49mn 58s
Bit rate mode : Variable
Bit rate : 2 930 Kbps
Nominal bit rate : 15.0 Mbps
Width : 720 pixels
Height : 576 pixels
Display aspect ratio : 4:3
Frame rate : 25.000 fps
Standard : PAL
Color space : YUV
Chroma subsampling : 4:2:0
Bit depth : 8 bits
Scan type : Interlaced
Scan order : Top Field First
Compression mode : Lossy
Bits/(Pixel*Frame) : 0.283
Stream size : 1.02 GiB (92%)
Writing library : (c) 1998-2008 Womble Multimedia, Inc. / MPEG Video Wizard (08/2008) / Aug 25 2008
Audio #192
ID : 192 (0xC0)
Format : MPEG Audio
Format version : Version 1
Format profile : Layer 2
Duration : 49mn 58s
Bit rate mode : Constant
Bit rate : 192 Kbps
Channel(s) : 2 channels
Sampling rate : 48.0 KHz
Compression mode : Lossy
Delay relative to video : -40ms
Stream size : 68.6 MiB (6%)

Скриншоты

[teatrix.ru].t8944.torrent 
Торрент: Зарегистрирован [ 2015-10-18 08:55 ] · E0C733B0A34AADD0201732128A6128E4EEF9F418

Скачать .torrent

Скачать

12 KB

Статус: проверено
Скачан: 1 раз
Размер: 1.11 GB
terms.php



Быстрый ответ

Имя:

      
Для отправки сообщений необходимо включить JavaScript
Показать сообщения:    

Текущее время: 03-Дек 09:50

Часовой пояс: UTC + 3


Вы можете начинать темы
Вы можете отвечать на сообщения
Вы не можете редактировать свои сообщения
Вы не можете удалять свои сообщения
Вы не можете голосовать в опросах
Вы не можете прикреплять файлы к сообщениям
Вы можете скачивать файлы