Марсель Дюшан: неувядающий иконоборец / Marcel Duchamp: Iconoclaste et Inoxydable (Fabrice Maze) [2009, Биография, DVDRip]


Статистика раздачи [Обновить пиров]
Размер:  1.87 GB   |    Зарегистрирован:  1 год 1 месяц   |    Скачан:  1 раз

Полного источника не было: 4 месяца 11 дней

 
   
 
 
 

[Цитировать]

Марсель Дюшан: неувядающий иконоборец / Marcel Duchamp: Iconoclaste et Inoxydable
Год выпуска: 2009
Страна: Франция
Жанр: Биография
Продолжительность: 00:49:59, 00:55:35, 01:13:47
Язык: французский
Перевод: Отсутствует
Русские субтитры: есть
Режиссер: Fabrice Maze
Описание: Фильм о жизни Марселя Дюшана, в 3 частях.
Качество: DVDRip
Формат: AVI
Видео кодек: XviD
Аудио кодек: MP3
Видео: XviD MPEG-4, 720 x 400, 16:9, 1 568 kbps, 25 000 fps
Аудио: MPEG-1 Layer 3, 92 kbps, 48 Khz, 2 channels

отчет MediaInfo

General
Complete name : E:\_Films & stuff\Marcel Duchamp, Iconoclaste et Inoxydable (2009)\Marcel Duchamp Iconoclaste et Inoxydable (2009)\Marcel Duchamp 1936-1968.avi
Format : AVI
Format/Info : Audio Video Interleave
File size : 726 MiB
Duration : 1h 13mn
Overall bit rate mode : Variable
Overall bit rate : 1 376 Kbps
Writing application : VirtualDubMod 1.5.4.1 (build 2178/release)
Writing library : VirtualDub build 32706/release
Video
ID : 0
Format : MPEG-4 Visual
Format profile : Advanced Simple@L5
Format settings, BVOP : 2
Format settings, QPel : No
Format settings, GMC : No warppoints
Format settings, Matrix : Default (H.263)
Muxing mode : Packed bitstream
Codec ID : XVID
Codec ID/Hint : XviD
Duration : 1h 13mn
Bit rate : 1 270 Kbps
Width : 720 pixels
Height : 400 pixels
Display aspect ratio : 16:9
Frame rate : 25.000 fps
Color space : YUV
Chroma subsampling : 4:2:0
Bit depth : 8 bits
Scan type : Progressive
Compression mode : Lossy
Bits/(Pixel*Frame) : 0.176
Stream size : 670 MiB (92%)
Writing library : XviD 1.2.1 (UTC 2008-12-04)
Audio
ID : 1
Format : MPEG Audio
Format version : Version 1
Format profile : Layer 3
Mode : Joint stereo
Mode extension : MS Stereo
Codec ID : 55
Codec ID/Hint : MP3
Duration : 1h 13mn
Bit rate mode : Variable
Bit rate : 92.7 Kbps
Nominal bit rate : 128 Kbps
Channel(s) : 2 channels
Sampling rate : 48.0 KHz
Compression mode : Lossy
Stream size : 48.9 MiB (7%)
Alignment : Aligned on interleaves
Interleave, duration : 24 ms (0.60 video frame)
Interleave, preload duration : 204 ms
Writing library : LAME3.98r
Encoding settings : -m j -V 4 -q 2 -lowpass 17 --abr 128
[teatrix.ru].t8948.torrent 
Торрент: Зарегистрирован [ 2015-10-18 08:55 ] · 465A014E6B0B604A95F547A9709982D45F0173D7

Скачать .torrent

Скачать

38 KB

Статус: проверено
Скачан: 1 раз
Размер: 1.87 GB
terms.php



Быстрый ответ

Имя:

      
Для отправки сообщений необходимо включить JavaScript
Показать сообщения:    

Текущее время: 07-Дек 11:38

Часовой пояс: UTC + 3


Вы можете начинать темы
Вы можете отвечать на сообщения
Вы не можете редактировать свои сообщения
Вы не можете удалять свои сообщения
Вы не можете голосовать в опросах
Вы не можете прикреплять файлы к сообщениям
Вы можете скачивать файлы