Залы Ротко / Rothko's Rooms (David Thompson / Дэвид Томпсон) [2008, Биография, DVDRip]


Статистика раздачи [Обновить пиров]
Размер:  633 MB   |    Зарегистрирован:  1 год 1 месяц   |    Скачан:  1 раз

Полного источника не было: 4 месяца 12 дней

 
   
 
 
 

[Цитировать]

Залы Ротко / Rothko's Rooms
Год выпуска: 2008
Страна: UK
Жанр: Биография
Продолжительность: 00:59:10
Язык: английский
Перевод: Отсутствует
Русские субтитры: есть
Режиссер: David Thompson / Дэвид Томпсон
Описание: Этот документальный фильм, работа над которым шла по обе стороны Атлантического океана, посвящен выдающемуся американскому художнику Марку Ротко. Он основан на живых и проникновенных свидетельствах друзей и близких художника - его дочери Кейт и сына Кристофера, а также коллег по цеху, искусствоведов, коллекционеров и кураторов. По мере того как звучит рассказ о жизни и творчестве художника, перед зрителем на экране проходит целая галерея произведений Ротко.
Качество: DVDRip
Формат: AVI
Видео кодек: XviD
Аудио кодек: AC3
Видео: XviD MPEG-4, 704 x 400, 16:9, 1 227 kbps, 29 970 fps
Аудио: Dolby Digital AC3, 256 kbps, 48 kHz, 2 channels

Скриншоты

отчет MediaInfo

General
Complete name : E:\_Films & stuff\Rothko's Rooms\RothkosRooms.avi
Format : AVI
Format/Info : Audio Video Interleave
File size : 633 MiB
Duration : 59mn 10s
Overall bit rate : 1 495 Kbps
Writing application : VirtualDubMod 1.5.4.1 (build 2178/release)
Writing library : VirtualDub build 32706/release
Video
ID : 0
Format : MPEG-4 Visual
Format profile : Advanced Simple@L5
Format settings, BVOP : 2
Format settings, QPel : No
Format settings, GMC : No warppoints
Format settings, Matrix : Default (H.263)
Muxing mode : Packed bitstream
Codec ID : XVID
Codec ID/Hint : XviD
Duration : 59mn 10s
Bit rate : 1 227 Kbps
Width : 704 pixels
Height : 400 pixels
Display aspect ratio : 16:9
Frame rate : 29.970 fps
Color space : YUV
Chroma subsampling : 4:2:0
Bit depth : 8 bits
Scan type : Progressive
Compression mode : Lossy
Bits/(Pixel*Frame) : 0.145
Stream size : 519 MiB (82%)
Writing library : XviD 1.2.1 (UTC 2008-12-04)
Audio
ID : 1
Format : AC-3
Format/Info : Audio Coding 3
Mode extension : CM (complete main)
Codec ID : 2000
Duration : 59mn 10s
Bit rate mode : Constant
Bit rate : 256 Kbps
Channel(s) : 2 channels
Channel positions : Front: L R
Sampling rate : 48.0 KHz
Bit depth : 16 bits
Compression mode : Lossy
Stream size : 108 MiB (17%)
Alignment : Split accross interleaves
Interleave, duration : 33 ms (1.00 video frame)
Interleave, preload duration : 500 ms
[teatrix.ru].t8949.torrent 
Торрент: Зарегистрирован [ 2015-10-18 08:55 ] · 69AAF2C1E1CE306767FFA50E701376E539E91723

Скачать .torrent

Скачать

25 KB

Статус: проверено
Скачан: 1 раз
Размер: 633 MB
terms.php



Быстрый ответ

Имя:

      
Для отправки сообщений необходимо включить JavaScript
Показать сообщения:    

Текущее время: 06-Дек 22:56

Часовой пояс: UTC + 3


Вы можете начинать темы
Вы можете отвечать на сообщения
Вы не можете редактировать свои сообщения
Вы не можете удалять свои сообщения
Вы не можете голосовать в опросах
Вы не можете прикреплять файлы к сообщениям
Вы можете скачивать файлы