Караваджо. Тайна смерти гения [2011, Документальный, DVB]


Статистика раздачи [Обновить пиров]
Размер:  1.05 GB   |    Зарегистрирован:  1 год 1 месяц   |    Скачан:  0 раз

Полного источника не было: Никогда

 
   
 
 
 

[Цитировать]

Караваджо. Тайна смерти гения
Год выпуска: 2011
Страна: Англия, США
Жанр: Документальный
Продолжительность: 00:52:21
Перевод: Профессиональный (одноголосый)
Описание: Караваджо погиб в 1610 году в возрасте 39 лет в городе Порто д’Эрколе. О причинах его смерти ходило очень много слухов. Итальянские специалисты считают, что им удалось открыть тайну смерти великого живописца Микеланджело да Караваджо.
Качество: DVB
Формат: MPEG
Видео кодек: MPEG2
Аудио кодек: MPEG1 Layer 2
Видео: MPEG2 Video 720x576 (4:3) 25.00fps ~2 633 Kbps
Аудио: MPEG Audio 48000Hz 2 channels 192 Кбит/сек

MediaInfo

H:\222-mpeg\Караваджо. Тайна смерти гения.mpg
General
Complete name : H:\222-mpeg\Караваджо. Тайна смерти гения.mpg
Format : MPEG-PS
File size : 1.05 GiB
Duration : 52mn 21s
Overall bit rate : 2 882 Kbps
Writing library : (c) 1998-2008 Womble Multimedia, Inc. / MPEG Video Wizard (08/2008) / Aug 25 2008
Video #224
ID : 224 (0xE0)
Format : MPEG Video
Format version : Version 2
Format profile : Main@Main
Format settings, BVOP : Yes
Format settings, Matrix : Custom
Format settings, GOP : M=1, N=21
Duration : 52mn 21s
Bit rate mode : Variable
Bit rate : 2 633 Kbps
Nominal bit rate : 15.0 Mbps
Width : 720 pixels
Height : 576 pixels
Display aspect ratio : 4:3
Frame rate : 25.000 fps
Standard : PAL
Color space : YUV
Chroma subsampling : 4:2:0
Bit depth : 8 bits
Scan type : Interlaced
Scan order : Top Field First
Compression mode : Lossy
Bits/(Pixel*Frame) : 0.254
Stream size : 986 MiB (91%)
Writing library : (c) 1998-2008 Womble Multimedia, Inc. / MPEG Video Wizard (08/2008) / Aug 25 2008
Audio #192
ID : 192 (0xC0)
Format : MPEG Audio
Format version : Version 1
Format profile : Layer 2
Duration : 52mn 21s
Bit rate mode : Constant
Bit rate : 192 Kbps
Channel(s) : 2 channels
Sampling rate : 48.0 KHz
Compression mode : Lossy
Delay relative to video : -40ms
Stream size : 71.9 MiB (7%)

Скриншоты

[teatrix.ru].t8951.torrent 
Торрент: Зарегистрирован [ 2015-10-18 08:55 ] · 2FDBDA35598B7E5371F4729248C4417838D4AC15

Скачать .torrent

Скачать

11 KB

Статус: проверено
Скачан: 0 раз
Размер: 1.05 GB
terms.php



Быстрый ответ

Имя:

      
Для отправки сообщений необходимо включить JavaScript
Показать сообщения:    

Текущее время: 10-Дек 08:04

Часовой пояс: UTC + 3


Вы можете начинать темы
Вы можете отвечать на сообщения
Вы не можете редактировать свои сообщения
Вы не можете удалять свои сообщения
Вы не можете голосовать в опросах
Вы не можете прикреплять файлы к сообщениям
Вы можете скачивать файлы